<?xml version="1.0" standalone="no"?><!DOCTYPE svg PUBLIC "-//W3C//DTD SVG 1.1//EN" "http://www.w3.org/Graphics/SVG/1.1/DTD/svg11.dtd"><svg xmlns="http://www.w3.org/2000/svg" xmlns:xlink="http://www.w3.org/1999/xlink" version="1.1"><metadata>Created by FontForge 20170731 at Wed Jun 7 15:45:09 2017 By Aleksey,,,Copyright (c) 2004 - 2017 Monotype GmbH. All rights reserved. </metadata><defs><font id="AvenirNextLTPro-Regular" horiz-adv-x="240"><font-face font-family="AvenirNext LT Pro Regular" font-weight="400" font-stretch="normal" units-per-em="1000" panose-1="2 11 5 4 2 2 2 2 2 4" ascent="758" descent="-242" x-height="468" cap-height="708" bbox="-205 -250 975 945" underline-thickness="50" underline-position="-150" unicode-range="U+000D-FB02" /><missing-glyph horiz-adv-x="512" d="M512 718v-718h-512v718h512zM462 50v617h-412v-617h412zM225 234l-2 17q0 56 13 81q7 13 18 27.5t28 31.5q16 15 26 26.5t15 21t7 18t2 17.5q0 36 -22.5 60.5t-53.5 24.5t-53.5 -22t-28.5 -73l-50 8q7 72 44 104.5t91 32.5t89 -35.5t35 -95.5q0 -32 -12.5 -58.5
t-50.5 -61.5q-37 -33 -43 -52q-6 -20 -6 -72h-46zM222 117v67h56v-67h-56z" /><glyph glyph-name="fi" unicode="fi" horiz-adv-x="544" d="M288 411h-110v-411h-68v411h-98v57h98v128q0 80 39 126t120 46q13 0 28 -1.5t28 -5.5l-12 -60q-11 3 -22 5t-25 2q-27 0 -44.5 -9t-27 -25.5t-13 -38.5t-3.5 -47v-120h110v-57zM467 648q0 -21 -15 -34.5t-33 -13.5t-33 13.5t-15 34.5t15 34.5t33 13.5t33 -13.5t15 -34.5z
M453 0h-68v468h68v-468z" /><glyph glyph-name="fl" unicode="fl" horiz-adv-x="544" d="M288 411h-110v-411h-68v411h-98v57h98v128q0 80 39 126t120 46q13 0 28 -1.5t28 -5.5l-12 -60q-11 3 -22 5t-25 2q-27 0 -44.5 -9t-27 -25.5t-13 -38.5t-3.5 -47v-120h110v-57zM452 0h-68v756h68v-756z" /><glyph glyph-name=".notdef" horiz-adv-x="512" d="M512 718v-718h-512v718h512zM462 50v617h-412v-617h412zM225 234l-2 17q0 56 13 81q7 13 18 27.5t28 31.5q16 15 26 26.5t15 21t7 18t2 17.5q0 36 -22.5 60.5t-53.5 24.5t-53.5 -22t-28.5 -73l-50 8q7 72 44 104.5t91 32.5t89 -35.5t35 -95.5q0 -32 -12.5 -58.5
t-50.5 -61.5q-37 -33 -43 -52q-6 -20 -6 -72h-46zM222 117v67h56v-67h-56z" /><glyph glyph-name=".null" horiz-adv-x="0" /><glyph glyph-name="nonmarkingreturn" unicode="&#xd;" horiz-adv-x="250" /><glyph glyph-name="NULL" horiz-adv-x="0" /><glyph glyph-name="NULL" horiz-adv-x="0" /><glyph glyph-name="space" unicode=" " horiz-adv-x="250" /><glyph glyph-name="exclam" unicode="!" horiz-adv-x="328" d="M218 48q0 -21 -15 -37.5t-39 -16.5t-39 16.5t-15 37.5t15 37.5t39 16.5t39 -16.5t15 -37.5zM200 192h-72v516h72v-516z" /><glyph glyph-name="quotedbl" unicode="&#x22;" horiz-adv-x="405" d="M245 708h60v-235h-60v235zM100 708h60v-235h-60v235z" /><glyph glyph-name="numbersign" unicode="#" horiz-adv-x="556" d="M206 274h133l22 162h-133zM137 214h-102v60h110l22 162h-108v60h117l29 212h61l-29 -212h133l29 212h61l-29 -212h90v-60h-99l-22 -162h95v-60h-103l-30 -214h-61l30 214h-133l-30 -214h-61z" /><glyph glyph-name="dollar" unicode="$" horiz-adv-x="580" d="M263 333q-34 10 -68.5 25t-62 38t-45 55.5t-17.5 78.5q0 43 15.5 77.5t42 59t61.5 38t74 15.5v72h48v-72q24 -1 49.5 -6t50 -15t46.5 -25t39 -35l-55 -42q-23 33 -58.5 49.5t-71.5 17.5v-275q38 -13 74.5 -29.5t65 -41t46 -58.5t17.5 -83q0 -42 -15.5 -76.5t-43 -59
t-64.5 -38.5t-80 -15v-72h-48v72q-68 2 -121.5 31t-89.5 75l57 40q13 -23 33 -39t41.5 -27t42.5 -16.5t37 -5.5v287zM311 46q22 1 45.5 8.5t42.5 23.5t31 41.5t12 62.5q0 51 -37 86t-94 53v-275zM263 664q-52 -2 -88 -36.5t-36 -91.5q0 -54 34 -84.5t90 -45.5v258z" /><glyph glyph-name="percent" unicode="%" horiz-adv-x="833" d="M217 -31l-52 27l451 743l51 -27zM735 163q0 25 -9.5 46t-25 36.5t-36.5 24t-45 8.5t-45 -8.5t-36.5 -24t-25 -36.5t-9.5 -46t9.5 -46t25 -36.5t36.5 -24t45 -8.5t45 8.5t36.5 24t25 36.5t9.5 46zM795 163q0 -37 -13.5 -69t-37.5 -55.5t-56 -37t-69 -13.5t-69 13.5t-56 37
t-37.5 55.5t-13.5 69t13.5 69t37.5 55.5t56 37t69 13.5t69 -13.5t56 -37t37.5 -55.5t13.5 -69zM330 545q0 25 -9.5 46t-25 36.5t-36.5 24t-45 8.5t-45 -8.5t-36.5 -24t-25 -36.5t-9.5 -46t9.5 -46t25 -36.5t36.5 -24t45 -8.5t45 8.5t36.5 24t25 36.5t9.5 46zM390 545
q0 -37 -13.5 -69t-37.5 -55.5t-56 -37t-69 -13.5t-69 13.5t-56 37t-37.5 55.5t-13.5 69t13.5 69t37.5 55.5t56 37t69 13.5t69 -13.5t56 -37t37.5 -55.5t13.5 -69z" /><glyph glyph-name="ampersand" unicode="&#x26;" horiz-adv-x="704" d="M253 348q-64 -29 -97 -68.5t-33 -96.5q0 -30 11.5 -55t32 -42.5t47.5 -27.5t57 -10q58 0 96.5 26t72.5 78zM404 567q0 44 -28.5 72t-71.5 28q-47 0 -77 -29.5t-30 -79.5q0 -19 8 -39.5t20 -38.5t25.5 -33t23.5 -23q24 11 47 24.5t41.5 30.5t30 39t11.5 49zM529 164
l159 -164h-100l-100 105q-44 -60 -95 -88.5t-123 -28.5q-45 0 -85.5 13t-70.5 37.5t-47.5 61t-17.5 84.5q0 40 12.5 72t34.5 57.5t52 45.5t65 35q-16 16 -31.5 35t-27.5 39.5t-19.5 43.5t-7.5 47q0 40 14 71t38 52.5t56 32.5t68 11q35 0 66 -10.5t54.5 -31t37 -50
t13.5 -67.5q0 -35 -13.5 -63t-36 -50.5t-51 -40t-58.5 -32.5l165 -170l98 172h81z" /><glyph glyph-name="quotesingle" unicode="'" horiz-adv-x="260" d="M100 708h60v-235h-60v235z" /><glyph glyph-name="parenleft" unicode="(" horiz-adv-x="300" d="M98 288q0 -58 10 -115t27.5 -110t41.5 -101t53 -88l-52 -33q-32 42 -58.5 92.5t-46 108t-30.5 119.5t-11 127q0 64 11 126.5t30.5 120t46 108t58.5 92.5l52 -33q-29 -40 -53 -88t-41.5 -101t-27.5 -110t-10 -115z" /><glyph glyph-name="parenright" unicode=")" horiz-adv-x="300" d="M202 288q0 58 -10 115t-27.5 110t-42 101t-52.5 88l52 33q31 -42 58 -92.5t46.5 -108t30.5 -120t11 -126.5q0 -65 -11 -127t-30.5 -119.5t-46.5 -108t-58 -92.5l-52 33q28 40 52.5 88t42 101t27.5 110t10 115z" /><glyph glyph-name="asterisk" unicode="*" horiz-adv-x="444" d="M252 565l140 45l21 -56l-141 -45l90 -121l-48 -36l-92 124l-92 -124l-48 36l90 121l-141 45l21 56l140 -45v143h60v-143z" /><glyph glyph-name="plus" unicode="+" horiz-adv-x="666" d="M363 333h225v-60h-225v-225h-60v225h-225v60h225v225h60v-225z" /><glyph glyph-name="comma" unicode="," horiz-adv-x="260" d="M102 -140h-57l67 235h71z" /><glyph glyph-name="hyphen" unicode="-" horiz-adv-x="320" d="M272 214h-224v57h224v-57z" /><glyph glyph-name="period" unicode="." horiz-adv-x="260" d="M184 48q0 -21 -15 -37.5t-39 -16.5t-39 16.5t-15 37.5t15 37.5t39 16.5t39 -16.5t15 -37.5z" /><glyph glyph-name="slash" unicode="/" horiz-adv-x="370" d="M63 -18l-58 19l303 725l57 -20z" /><glyph glyph-name="zero" unicode="0" horiz-adv-x="580" d="M290 665q-47 0 -78 -29t-49 -74t-25 -100.5t-7 -108.5t7 -108t25 -99.5t49 -73t78 -28.5q46 0 77 28.5t49 73t25.5 99.5t7.5 108t-7.5 108.5t-25.5 100.5t-49 74t-77 29zM290 726q66 0 110.5 -32.5t71.5 -85t38.5 -119.5t11.5 -136t-11.5 -135.5t-38.5 -119t-71.5 -84.5
t-110.5 -32q-67 0 -111.5 32t-71.5 84.5t-38 119t-11 135.5t11 136t38 119.5t71.5 85t111.5 32.5z" /><glyph glyph-name="one" unicode="1" horiz-adv-x="580" d="M358 0h-72v619l-128 -109l-44 50l180 148h64v-708z" /><glyph glyph-name="two" unicode="2" horiz-adv-x="580" d="M504 0h-453v75l290 293q16 16 31.5 34.5t27.5 38.5t19 42.5t7 46.5q0 31 -11 56t-30.5 42.5t-45 27t-53.5 9.5q-57 0 -96 -35.5t-50 -90.5l-71 14q7 37 26.5 69t48 55t64.5 36t78 13q43 0 81.5 -12.5t67.5 -37t46.5 -61t17.5 -84.5q0 -34 -9.5 -63t-25 -55t-36.5 -49.5
t-44 -46.5l-255 -253h375v-64z" /><glyph glyph-name="three" unicode="3" horiz-adv-x="580" d="M214 402h31q34 0 64 7t52.5 22.5t35.5 40.5t13 60q0 30 -11 54.5t-30.5 42t-45 27t-53.5 9.5q-45 0 -79.5 -21t-55.5 -62l-61 32q33 57 84 84.5t116 27.5q42 0 79.5 -12.5t66 -36.5t45 -59.5t16.5 -81.5q0 -63 -35 -105.5t-88 -56.5v-2q61 -13 102 -58.5t41 -117.5
q0 -51 -18.5 -90.5t-49.5 -67t-72.5 -42t-87.5 -14.5q-78 0 -136 37.5t-88 107.5l68 25q18 -51 60 -79.5t96 -28.5q30 0 58.5 10.5t50 30t34.5 47.5t13 64q0 40 -15.5 67.5t-41.5 44.5t-59 24.5t-68 7.5h-31v62z" /><glyph glyph-name="four" unicode="4" horiz-adv-x="580" d="M366 627h-2l-247 -393h249v393zM436 234h104v-63h-104v-171h-70v171h-324v70l300 467h94v-474z" /><glyph glyph-name="five" unicode="5" horiz-adv-x="580" d="M475 644h-295l-5 -219q23 8 48.5 12t49.5 4q50 0 92 -16t73 -45.5t48 -70.5t17 -90q0 -51 -17 -94.5t-48 -75t-74.5 -49.5t-95.5 -18q-77 0 -130 35t-82 94l65 29q19 -44 57.5 -70t85.5 -26q36 0 66.5 12.5t52.5 35t34.5 53.5t12.5 67q0 39 -13.5 70.5t-37 53.5t-55.5 34
t-70 12t-75.5 -10.5t-71.5 -28.5l7 365h361v-64z" /><glyph glyph-name="six" unicode="6" horiz-adv-x="580" d="M132 205q0 -35 11.5 -64.5t32.5 -51t50 -34t64 -12.5t64 12.5t50 34t32.5 51t11.5 64.5q0 34 -11 63.5t-31.5 51t-50 33.5t-65.5 12t-65.5 -12t-50 -33.5t-31.5 -51t-11 -63.5zM201 399l2 -2q16 12 45 19t56 7q46 0 85.5 -16t68.5 -44.5t45.5 -69t16.5 -88.5
q0 -50 -17 -91t-48 -70t-73 -45.5t-92 -16.5t-92 16.5t-73 45.5t-48 70t-17 91q0 55 19 102t45 90l193 311h83z" /><glyph glyph-name="seven" unicode="7" horiz-adv-x="580" d="M498 642l-285 -642h-81l293 644h-347v64h420v-66z" /><glyph glyph-name="eight" unicode="8" horiz-adv-x="580" d="M135 194q0 -32 11 -60t31.5 -48t49 -31.5t63.5 -11.5t63.5 11.5t49 31.5t31.5 48t11 60t-11 59t-31.5 47t-49 31t-63.5 11t-63.5 -11t-49 -31t-31.5 -47t-11 -59zM160 533q0 -28 10 -51t28 -40t41.5 -26.5t50.5 -9.5t50.5 9.5t41.5 26.5t28 40t10 51t-10 52.5t-27.5 42
t-41 27.5t-51.5 10t-51.5 -10t-41 -27.5t-27.5 -42t-10 -52.5zM383 375q58 -17 96 -67t38 -122q0 -47 -18.5 -84.5t-49.5 -64t-72.5 -41t-86.5 -14.5t-86.5 14.5t-72.5 41t-49.5 64t-18.5 84.5q0 36 10 66.5t28 55t42.5 41.5t53.5 26v2q-24 8 -43.5 23.5t-33.5 37t-22 47
t-8 52.5q0 43 16 78t43.5 59.5t63.5 38t77 13.5q40 0 76.5 -13.5t64 -38t43.5 -59.5t16 -78q0 -27 -8 -52.5t-22 -47t-33.5 -37t-43.5 -23.5v-2v0z" /><glyph glyph-name="nine" unicode="9" horiz-adv-x="580" d="M450 503q0 34 -11.5 64t-32.5 51.5t-50 34t-64 12.5t-64 -12.5t-50 -34t-32.5 -51.5t-11.5 -64t11 -63.5t31.5 -51t50 -33.5t65.5 -12t65.5 12t50 33.5t31.5 51t11 63.5zM381 309l-2 2q-16 -12 -45 -19t-56 -7q-46 0 -85.5 16t-68.5 44.5t-45.5 69t-16.5 88.5
q0 49 17 90.5t48 70.5t73 45.5t92 16.5t92 -16.5t73 -45.5t48 -70.5t17 -90.5q0 -55 -19 -102t-45 -90l-193 -311h-83z" /><glyph glyph-name="colon" unicode=":" horiz-adv-x="300" d="M204 48q0 -21 -15 -37.5t-39 -16.5t-39 16.5t-15 37.5t15 37.5t39 16.5t39 -16.5t15 -37.5zM204 420q0 -21 -15 -37.5t-39 -16.5t-39 16.5t-15 37.5t15 37.5t39 16.5t39 -16.5t15 -37.5z" /><glyph glyph-name="semicolon" unicode=";" horiz-adv-x="300" d="M118 -140h-60l67 235h74zM204 420q0 -21 -15 -37.5t-39 -16.5t-39 16.5t-15 37.5t15 37.5t39 16.5t39 -16.5t15 -37.5z" /><glyph glyph-name="less" unicode="&#x3c;" horiz-adv-x="666" d="M588 504l-429 -201l429 -201v-60l-510 238v46l510 238v-60z" /><glyph glyph-name="equal" unicode="=" horiz-adv-x="666" d="M588 258v-60h-510v60h510zM588 408v-60h-510v60h510z" /><glyph glyph-name="greater" unicode="&#x3e;" horiz-adv-x="666" d="M78 564l510 -238v-46l-510 -238v60l429 201l-429 201v60z" /><glyph glyph-name="question" unicode="?" horiz-adv-x="482" d="M300 48q0 -21 -15 -37.5t-39 -16.5t-39 16.5t-15 37.5t15 37.5t39 16.5t39 -16.5t15 -37.5zM274 192h-70v60q0 28 6.5 50.5t18 40.5t26 32.5t29.5 28.5l28 25q25 20 41.5 46t16.5 65q0 28 -10 50t-27 37t-39.5 23t-48.5 8q-54 0 -87.5 -33t-41.5 -84l-68 12
q15 78 68.5 122.5t131.5 44.5q40 0 75.5 -11.5t61.5 -34t41.5 -55.5t15.5 -75q0 -32 -7 -56t-19.5 -43t-29.5 -34.5t-36 -31.5q-21 -17 -35.5 -31t-23.5 -29.5t-13 -34.5t-4 -46v-46z" /><glyph glyph-name="at" unicode="@" horiz-adv-x="800" d="M731 101q-59 -60 -138.5 -89.5t-175.5 -29.5q-86 0 -156.5 27.5t-120.5 76.5t-77.5 117.5t-27.5 149.5q0 80 30 148t82 118t121.5 78.5t148.5 28.5q68 0 132 -20t113.5 -60t79 -100t29.5 -141q0 -60 -16 -106t-42.5 -77t-61.5 -46.5t-74 -15.5q-45 0 -66 22t-21 51h-4
q-5 -11 -16 -23.5t-27 -23.5t-36.5 -18.5t-45.5 -7.5q-34 0 -61 12.5t-45.5 34t-28.5 52t-10 66.5q0 42 14 82.5t39.5 72t62.5 50.5t83 19q38 0 65.5 -17.5t38.5 -42.5h4l10 45h62l-40 -186q-2 -7 -3.5 -17.5t-3.5 -22t-3 -22.5t-1 -18q0 -9 1.5 -17.5t7 -16t15 -12
t25.5 -4.5q25 0 45.5 14t35 38t22.5 57t8 71q0 65 -21.5 114.5t-60 83.5t-91 51t-115.5 17q-69 0 -125 -24t-96.5 -66t-62.5 -99.5t-22 -124.5q0 -71 23 -128t64.5 -97t99 -61.5t127.5 -21.5q89 0 154 27.5t116 77.5zM412 489q-30 0 -52.5 -15.5t-38.5 -39.5t-24 -54t-8 -59
q0 -14 3.5 -32t12.5 -34t24.5 -26.5t39.5 -10.5q34 0 58 17t39 42.5t22 54.5t7 54q0 19 -4 37.5t-13.5 33t-25.5 23.5t-40 9z" /><glyph glyph-name="A" unicode="A" horiz-adv-x="700" d="M193 252h312l-156 376zM89 0h-79l306 708h70l304 -708h-80l-78 186h-366z" /><glyph glyph-name="B" unicode="B" horiz-adv-x="636" d="M166 62h134q39 0 74.5 7.5t62 24t42.5 43t16 63.5q0 70 -47.5 104.5t-134.5 34.5h-147v-277zM166 398h145q26 0 52.5 6t48.5 20.5t35.5 38.5t13.5 59q0 34 -13.5 57.5t-36.5 38.5t-54 21.5t-66 6.5h-125v-248zM94 708h211q40 0 81 -8.5t73.5 -29t53 -55.5t20.5 -88
q0 -56 -34 -97.5t-91 -54.5v-2q69 -8 114.5 -53.5t45.5 -123.5q0 -44 -18.5 -80.5t-52.5 -62t-83 -39.5t-110 -14h-210v708z" /><glyph glyph-name="C" unicode="C" horiz-adv-x="720" d="M690 114q-18 -27 -43.5 -51t-59 -42t-74 -28.5t-88.5 -10.5q-80 0 -148 28t-117 77.5t-76.5 117.5t-27.5 149t28 149t77.5 117.5t117 77.5t146.5 28q39 0 76.5 -8t70.5 -22.5t60 -35t45 -46.5l-60 -44q-11 17 -29.5 34t-43.5 30t-54.5 21t-63.5 8q-69 0 -123.5 -25
t-92.5 -67.5t-58 -98.5t-20 -118t20.5 -118t58.5 -98.5t92.5 -67.5t122.5 -25q61 0 116 25t92 80z" /><glyph glyph-name="D" unicode="D" horiz-adv-x="757" d="M166 64h143q80 0 139.5 25t98.5 65.5t58.5 92.5t19.5 107t-19.5 107t-58.5 92.5t-98.5 65.5t-139.5 25h-143v-580zM94 708h235q66 0 132.5 -22t120 -66.5t86.5 -111t33 -154.5q0 -89 -33 -155t-86.5 -110.5t-120 -66.5t-132.5 -22h-235v708z" /><glyph glyph-name="E" unicode="E" horiz-adv-x="592" d="M166 64h379v-64h-451v708h439v-64h-367v-244h343v-63h-343v-273z" /><glyph glyph-name="F" unicode="F" horiz-adv-x="562" d="M166 0h-72v708h427v-64h-355v-246h330v-63h-330v-335z" /><glyph glyph-name="G" unicode="G" horiz-adv-x="779" d="M631 581q-37 39 -88 60.5t-117 21.5q-68 0 -122.5 -25t-92.5 -67.5t-58.5 -98.5t-20.5 -118t20.5 -118t58.5 -98t92.5 -67t122.5 -25q60 0 110 13t81 33v215h-165v63h237v-319q-58 -35 -125 -52t-139 -17q-80 0 -148 28t-117 77.5t-76.5 117.5t-27.5 149t28 149
t77.5 117.5t117 77.5t146.5 28q85 0 148 -25t108 -70z" /><glyph glyph-name="H" unicode="H" horiz-adv-x="718" d="M94 708h72v-307h386v307h72v-708h-72v335h-386v-335h-72v708z" /><glyph glyph-name="I" unicode="I" horiz-adv-x="260" d="M166 0h-72v708h72v-708z" /><glyph glyph-name="J" unicode="J" horiz-adv-x="492" d="M92 144q8 -42 37.5 -70.5t77.5 -28.5q37 0 61 13.5t38.5 36.5t20 52.5t5.5 61.5v499h72v-504q0 -35 -7.5 -74t-28.5 -72t-58 -54.5t-95 -21.5q-77 0 -127 40.5t-63 103.5z" /><glyph glyph-name="K" unicode="K" horiz-adv-x="628" d="M166 390h1l337 318h103l-357 -321l377 -387h-106l-354 377h-1v-377h-72v708h72v-318z" /><glyph glyph-name="L" unicode="L" horiz-adv-x="510" d="M166 64h330v-64h-402v708h72v-644z" /><glyph glyph-name="M" unicode="M" horiz-adv-x="886" d="M444 122h1l237 586h110v-708h-72v615h-2l-256 -615h-38l-256 615h-2v-615h-72v708h110z" /><glyph glyph-name="N" unicode="N" horiz-adv-x="764" d="M596 105h2v603h72v-708h-90l-412 609h-2v-609h-72v708h90z" /><glyph glyph-name="O" unicode="O" horiz-adv-x="850" d="M718 354q0 62 -20 118t-58 98.5t-92.5 67.5t-122.5 25t-122.5 -25t-92.5 -67.5t-58 -98.5t-20 -118t20 -118t58 -98t92.5 -67t122.5 -25t122.5 25t92.5 67t58 98t20 118zM794 354q0 -81 -28 -149t-77.5 -117.5t-117 -77.5t-146.5 -28t-146.5 28t-117 77.5t-77.5 117.5
t-28 149t28 149t77.5 117.5t117 77.5t146.5 28t146.5 -28t117 -77.5t77.5 -117.5t28 -149z" /><glyph glyph-name="P" unicode="P" horiz-adv-x="580" d="M166 390h122q85 0 129 33t44 96q0 66 -45.5 96.5t-127.5 30.5h-122v-256zM94 708h200q54 0 98 -11.5t75.5 -35t48.5 -59t17 -83.5t-17.5 -83.5t-49 -59t-76 -35.5t-98.5 -12h-126v-329h-72v708z" /><glyph glyph-name="Q" unicode="Q" horiz-adv-x="843" d="M819 0h-405q-77 0 -142.5 27t-113.5 75.5t-75 115t-27 145.5t27 145.5t75 115t113.5 75.5t142.5 27q76 0 141.5 -27t113.5 -75.5t75 -115t27 -145.5q0 -94 -41.5 -171.5t-124.5 -125.5v-2h214v-64zM132 363q0 -60 19.5 -114t55.5 -95.5t88.5 -66t118.5 -24.5
q65 0 117.5 24.5t89 66t56.5 95.5t20 114t-20 114t-56.5 95.5t-89 66t-117.5 24.5q-66 0 -118.5 -24.5t-88.5 -66t-55.5 -95.5t-19.5 -114z" /><glyph glyph-name="R" unicode="R" horiz-adv-x="599" d="M166 393h125q87 0 134 31.5t47 94.5q0 35 -13 59t-36 39t-56 22t-73 7h-128v-253zM166 0h-72v708h208q52 0 96.5 -10t77 -32.5t50.5 -58.5t18 -88q0 -39 -14 -71t-38 -55.5t-57 -37.5t-72 -18l207 -337h-88l-196 331h-120v-331z" /><glyph glyph-name="S" unicode="S" horiz-adv-x="564" d="M437 594q-23 32 -59 51.5t-87 19.5q-26 0 -53 -8t-49 -24.5t-35.5 -41.5t-13.5 -59t13 -56t34.5 -37.5t49 -25.5t57.5 -20q37 -12 74.5 -26t67.5 -36.5t49 -57t19 -87.5t-20.5 -91.5t-53 -63.5t-74 -37t-83.5 -12q-32 0 -64 6.5t-61 19.5t-54 33t-44 46l62 46
q23 -38 64.5 -63.5t97.5 -25.5q27 0 55 8.5t50.5 26t37 43t14.5 59.5q0 37 -14.5 61.5t-38.5 41t-55 27.5t-65 22q-35 11 -69 25t-61 36.5t-43.5 55.5t-16.5 81q0 51 20.5 88t53.5 61t73 35t79 11q72 0 123 -25.5t77 -60.5z" /><glyph glyph-name="T" unicode="T" horiz-adv-x="570" d="M321 0h-72v644h-237v64h546v-64h-237v-644z" /><glyph glyph-name="U" unicode="U" horiz-adv-x="710" d="M355 -18q-80 0 -131 27.5t-81 69.5t-41.5 91.5t-11.5 93.5v444h72v-436q0 -43 10 -83.5t32.5 -72t59.5 -51t91 -19.5t91 19.5t59.5 51t32.5 72t10 83.5v436h72v-444q0 -44 -11.5 -93.5t-41.5 -91.5t-81.5 -69.5t-130.5 -27.5z" /><glyph glyph-name="V" unicode="V" horiz-adv-x="623" d="M311 93h2l230 615h77l-271 -708h-76l-270 708h78z" /><glyph glyph-name="W" unicode="W" horiz-adv-x="972" d="M265 99h2l177 609h86l177 -609h2l173 609h76l-209 -708h-84l-178 608h-2l-178 -608h-84l-209 708h76z" /><glyph glyph-name="X" unicode="X" horiz-adv-x="649" d="M326 422l193 286h86l-235 -337l260 -371h-90l-216 319l-215 -319h-90l260 372l-237 336h90z" /><glyph glyph-name="Y" unicode="Y" horiz-adv-x="602" d="M337 0h-72v305l-265 403h90l213 -343l215 343h84l-265 -403v-305z" /><glyph glyph-name="Z" unicode="Z" horiz-adv-x="572" d="M535 648l-413 -584h419v-64h-510v60l414 584h-403v64h493v-60z" /><glyph glyph-name="bracketleft" unicode="[" horiz-adv-x="300" d="M220 678h-96v-780h96v-54h-162v888h162v-54z" /><glyph glyph-name="backslash" unicode="\" horiz-adv-x="370" 
d="M5 706l57 20l303 -725l-58 -19z" />
    <glyph glyph-name="bracketright" unicode="]" horiz-adv-x="300" 
d="M80 -102h96v780h-96v54h162v-888h-162v54z" />
    <glyph glyph-name="asciicircum" unicode="^" horiz-adv-x="666" 
d="M309 708h48l229 -433h-62l-191 361l-191 -361h-62z" />
    <glyph glyph-name="underscore" unicode="_" horiz-adv-x="500" 
d="M0 -75h500v-50h-500v50z" />
    <glyph glyph-name="grave" unicode="`" 
d="M-10 708h91l100 -144h-59z" />
    <glyph glyph-name="a" unicode="a" horiz-adv-x="534" 
d="M365 234q-42 0 -84.5 -3.5t-77 -14t-56.5 -30.5t-22 -53q0 -25 9.5 -42t25.5 -27.5t35.5 -15t39.5 -4.5q36 0 64 12.5t47 34t29 49.5t10 59v35h-20zM385 302q0 61 -32 91t-93 30q-42 0 -78 -15t-61 -40l-38 45q29 29 76.5 48t107.5 19q38 0 71 -10.5t58 -31.5t39 -53 t14 -75v-205q0 -27 2 -56t6 -49h-61q-3 17 -5 37t-2 39h-2q-32 -47 -72.5 -67.5t-97.5 -20.5q-27 0 -55.5 7.5t-52 24.5t-39 44t-15.5 66q0 54 27.5 85.5t73.5 47t105.5 20t123.5 4.5v15z" />
    <glyph glyph-name="b" unicode="b" horiz-adv-x="637" 
d="M509 234q0 39 -12 73.5t-34.5 60t-55.5 40.5t-75 15q-39 0 -72 -14.5t-57 -40t-37.5 -60t-13.5 -74.5t13.5 -74.5t37.5 -59.5t57 -39.5t72 -14.5q42 0 75 14.5t55.5 40t34.5 60t12 73.5zM160 79v-79h-68v756h68v-369h2q30 46 78 69.5t99 23.5q55 0 99.5 -19t76 -52 t49 -78t17.5 -97t-17.5 -97t-49 -78t-76 -52t-99.5 -19q-51 0 -99 23t-78 68h-2z" />
    <glyph glyph-name="c" unicode="c" horiz-adv-x="500" 
d="M427 361q-17 27 -49.5 44.5t-70.5 17.5q-41 0 -74 -14.5t-56.5 -40t-36 -60t-12.5 -74.5t12.5 -74t35.5 -59.5t56 -40t74 -14.5q45 0 76 17t51 44l51 -38q-30 -37 -73.5 -59t-104.5 -22q-57 0 -103 18.5t-78.5 51.5t-50.5 78t-18 98t18 98t50.5 78t78.5 51.5t103 18.5 q47 0 95.5 -20.5t78.5 -60.5z" />
    <glyph glyph-name="d" unicode="d" horiz-adv-x="637" 
d="M128 234q0 -39 12 -73.5t34.5 -60t55.5 -40t75 -14.5q39 0 72 14.5t57 39.5t37.5 59.5t13.5 74.5t-13.5 74.5t-37.5 60t-57 40t-72 14.5q-42 0 -75 -15t-55.5 -40.5t-34.5 -60t-12 -73.5zM475 79q-30 -45 -78 -68t-99 -23q-55 0 -99.5 19t-76 52t-49 78t-17.5 97t17.5 97 t49 78t76 52t99.5 19q51 0 99 -23.5t78 -69.5h2v369h68v-756h-68v79h-2v0z" />
    <glyph glyph-name="e" unicode="e" horiz-adv-x="572" 
d="M516 248v-15t-1 -17h-388q1 -35 14 -66t36 -54t54 -36.5t67 -13.5q53 0 91.5 24.5t58.5 56.5l51 -40q-42 -53 -92.5 -76t-108.5 -23q-52 0 -96.5 18.5t-76.5 51.5t-50.5 78t-18.5 98t18 98t50 78t75 51.5t93 18.5q55 0 97 -18.5t70 -50t42.5 -73.5t14.5 -90zM447 270 q-3 66 -42.5 109.5t-112.5 43.5q-34 0 -63 -12.5t-51 -34t-35 -49t-15 -57.5h319z" />
    <glyph glyph-name="f" unicode="f" horiz-adv-x="295" 
d="M288 411h-110v-411h-68v411h-98v57h98v128q0 80 39 126t120 46q13 0 28 -1.5t28 -5.5l-12 -60q-11 3 -22 5t-25 2q-27 0 -44.5 -9t-27 -25.5t-13 -38.5t-3.5 -47v-120h110v-57z" />
    <glyph glyph-name="g" unicode="g" horiz-adv-x="632" 
d="M128 240q0 -37 12 -70t34.5 -58t55.5 -39.5t75 -14.5q39 0 72 13t57 37t37.5 57.5t13.5 74.5q0 37 -13.5 70t-37.5 58t-57 40t-72 15q-42 0 -75 -15t-55.5 -40t-34.5 -58t-12 -70zM115 -94q28 -36 76.5 -61t102.5 -25q50 0 85 14.5t56.5 39.5t31.5 58.5t10 71.5v88h-2 q-27 -44 -76.5 -68t-100.5 -24q-55 0 -99.5 18t-76 49.5t-49 75.5t-17.5 95q0 50 17.5 94t49 77t76 52t99.5 19q51 0 100 -24t77 -69h2v81h68v-464q0 -38 -10.5 -81t-39 -79t-77.5 -60t-127 -24q-65 0 -124 25t-101 69z" />
    <glyph glyph-name="h" unicode="h" horiz-adv-x="583" 
d="M162 391q19 41 63 65t94 24q89 0 133.5 -53t44.5 -140v-287h-68v259q0 37 -6 67t-20.5 51.5t-39 33.5t-61.5 12q-27 0 -52.5 -11t-45.5 -33.5t-32 -57t-12 -81.5v-240h-68v756h68v-365h2z" />
    <glyph glyph-name="i" unicode="i" horiz-adv-x="250" 
d="M173 648q0 -21 -15 -34.5t-33 -13.5t-33 13.5t-15 34.5t15 34.5t33 13.5t33 -13.5t15 -34.5zM159 0h-68v468h68v-468z" />
    <glyph glyph-name="j" unicode="j" horiz-adv-x="251" 
d="M174 648q0 -21 -15 -34.5t-33 -13.5t-33 13.5t-15 34.5t15 34.5t33 13.5t33 -13.5t15 -34.5zM-17 -176q10 -3 21.5 -4.5t21.5 -1.5q21 0 34 7.5t20 20.5t9.5 31.5t2.5 40.5v550h68v-561q0 -28 -6 -54.5t-21 -47t-40.5 -33t-65.5 -12.5q-11 0 -26 1.5t-28 5.5z" />
    <glyph glyph-name="k" unicode="k" horiz-adv-x="510" 
d="M160 257h3l216 211h98l-236 -214l260 -254h-100l-238 246h-3v-246h-68v756h68v-499z" />
    <glyph glyph-name="l" unicode="l" horiz-adv-x="252" 
d="M160 0h-68v756h68v-756z" />
    <glyph glyph-name="m" unicode="m" horiz-adv-x="883" 
d="M157 388q20 41 61.5 66.5t92.5 25.5q19 0 39.5 -4t40 -15.5t36 -30.5t28.5 -49q24 48 65.5 73.5t98.5 25.5q89 0 133.5 -53t44.5 -140v-287h-68v259q0 74 -27.5 119t-93.5 45q-37 0 -62.5 -15t-41 -39.5t-22.5 -55.5t-7 -64v-249h-68v273q0 34 -5 62t-17.5 47.5t-34.5 30 t-56 10.5q-24 0 -48.5 -11t-44 -33.5t-31.5 -57t-12 -81.5v-240h-68v365q0 19 -1 49t-3 54h65q2 -19 3 -42t1 -38h2v0z" />
    <glyph glyph-name="n" unicode="n" horiz-adv-x="581" 
d="M151 468q2 -19 3 -42t1 -38h2q20 41 65 66.5t95 25.5q89 0 133.5 -53t44.5 -140v-287h-68v259q0 37 -6 67t-20.5 51.5t-39 33.5t-61.5 12q-27 0 -52.5 -11t-45.5 -33.5t-32 -57t-12 -81.5v-240h-68v365q0 19 -1 49t-3 54h65z" />
    <glyph glyph-name="o" unicode="o" horiz-adv-x="611" 
d="M483 234q0 39 -12.5 73.5t-35.5 60t-56 40.5t-74 15t-73.5 -15t-55.5 -40.5t-35.5 -60t-12.5 -73.5t12.5 -73.5t35.5 -60t55.5 -40t73.5 -14.5t74 14.5t56 40t35.5 60t12.5 73.5zM555 234q0 -53 -18.5 -98t-51.5 -78t-79 -51.5t-101 -18.5q-54 0 -100 18.5t-79 51.5 t-51.5 78t-18.5 98t18.5 98t51.5 78t79 51.5t100 18.5q55 0 101 -18.5t79 -51.5t51.5 -78t18.5 -98z" />
    <glyph glyph-name="p" unicode="p" horiz-adv-x="635" 
d="M507 234q0 39 -12 73.5t-34.5 60t-55.5 40.5t-75 15q-39 0 -72 -14.5t-57 -40t-37.5 -60t-13.5 -74.5t13.5 -74.5t37.5 -59.5t57 -39.5t72 -14.5q42 0 75 14.5t55.5 40t34.5 60t12 73.5zM158 -240h-68v708h68v-81h3q29 46 77.5 69.5t98.5 23.5q55 0 99.5 -19t76 -52 t49 -78t17.5 -97t-17.5 -97t-49 -78t-76 -52t-99.5 -19q-50 0 -98.5 23.5t-77.5 67.5h-3v-319z" />
    <glyph glyph-name="q" unicode="q" horiz-adv-x="635" 
d="M128 234q0 -39 12 -73.5t34.5 -60t55.5 -40t75 -14.5q39 0 72 14.5t57 39.5t37.5 59.5t13.5 74.5t-13.5 74.5t-37.5 60t-57 40t-72 14.5q-42 0 -75 -15t-55.5 -40.5t-34.5 -60t-12 -73.5zM474 79q-29 -44 -77.5 -67.5t-98.5 -23.5q-55 0 -99.5 19t-76 52t-49 78t-17.5 97 t17.5 97t49 78t76 52t99.5 19q50 0 98.5 -23.5t77.5 -69.5h3v81h68v-708h-68v319h-3z" />
    <glyph glyph-name="r" unicode="r" horiz-adv-x="360" 
d="M90 365q0 19 -1 49t-3 54h65q2 -19 3 -42t1 -38h2q20 41 60 66.5t90 25.5q13 0 23.5 -1t21.5 -4l-9 -64q-6 2 -20 4t-28 2q-27 0 -52 -10t-43.5 -31.5t-30 -55t-11.5 -80.5v-240h-68v365v0z" />
    <glyph glyph-name="s" unicode="s" horiz-adv-x="444" 
d="M339 357q-15 29 -45.5 47.5t-69.5 18.5q-18 0 -36 -4t-32 -13t-22.5 -23t-8.5 -33q0 -33 27 -50.5t85 -29.5q83 -17 122.5 -49.5t39.5 -87.5q0 -40 -15.5 -67.5t-40.5 -45t-56.5 -25t-63.5 -7.5q-53 0 -103 22t-82 69l54 40q18 -31 53 -52t77 -21q22 0 42 4t35 14 t24 25.5t9 38.5q0 37 -35.5 55.5t-102.5 34.5q-21 5 -44.5 12.5t-43.5 22t-33 36.5t-13 55q0 36 14 61.5t37.5 42t53.5 24.5t62 8q49 0 95 -22t69 -62z" />
    <glyph glyph-name="t" unicode="t" horiz-adv-x="317" 
d="M301 411h-132v-273q0 -26 5 -43t14.5 -26.5t22.5 -13t28 -3.5q14 0 29.5 4t29.5 11l3 -59q-18 -7 -37.5 -10.5t-42.5 -3.5q-19 0 -40 5t-39 19t-29.5 38t-11.5 63v292h-97v57h97v132h68v-132h132v-57z" />
    <glyph glyph-name="u" unicode="u" horiz-adv-x="581" 
d="M430 0q-2 19 -3 42t-1 38h-2q-20 -41 -65 -66.5t-95 -25.5q-89 0 -133.5 53t-44.5 140v287h68v-259q0 -37 6 -67t20.5 -51.5t39 -33.5t61.5 -12q27 0 52.5 11t45.5 33.5t32 57t12 81.5v240h68v-365q0 -19 1 -49t3 -54h-65z" />
    <glyph glyph-name="v" unicode="v" horiz-adv-x="488" 
d="M282 0h-75l-191 468h76l152 -396h2l153 396h73z" />
    <glyph glyph-name="w" unicode="w" horiz-adv-x="746" 
d="M99 468l113 -380h2l126 380h66l128 -380h2l112 380h72l-148 -468h-74l-125 379h-2l-123 -379h-74l-148 468h73z" />
    <glyph glyph-name="x" unicode="x" horiz-adv-x="484" 
d="M200 242l-173 226h87l128 -178l128 178h82l-170 -223l186 -245h-88l-139 195l-143 -195h-82z" />
    <glyph glyph-name="y" unicode="y" horiz-adv-x="488" 
d="M251 73h2l145 395h74l-233 -589q-21 -54 -53.5 -86.5t-93.5 -32.5q-31 0 -61 6l7 62q24 -8 50 -8q35 0 55 21.5t35 61.5l38 98l-200 467h76z" />
    <glyph glyph-name="z" unicode="z" horiz-adv-x="442" 
d="M401 420l-280 -361h290v-59h-380v48l279 363h-265v57h356v-48z" />
    <glyph glyph-name="braceleft" unicode="{" horiz-adv-x="300" 
d="M0 318q39 0 59 29t20 82v178q0 35 9 59t24 38.5t34.5 21t40.5 6.5h63v-54h-48q-18 0 -29.5 -7.5t-17.5 -19.5t-8 -27t-2 -29v-178q0 -36 -10.5 -60.5t-25 -39t-29.5 -21t-24 -7.5v-2q9 -1 24 -7.5t29.5 -21t25 -39t10.5 -60.5v-178q0 -14 2 -29t8 -27t17.5 -19.5 t29.5 -7.5h48v-54h-63q-21 0 -40.5 6.5t-34.5 21t-24 38.5t-9 59v178q0 53 -20 82t-59 29v60z" />
    <glyph glyph-name="bar" unicode="|" horiz-adv-x="222" 
d="M141 750v-1000h-60v1000h60z" />
    <glyph glyph-name="braceright" unicode="}" horiz-adv-x="300" 
d="M300 258q-39 0 -59 -29t-20 -82v-178q0 -35 -9 -59t-24 -38.5t-34.5 -21t-40.5 -6.5h-63v54h48q18 0 29.5 7.5t17.5 19.5t8 27t2 29v178q0 36 10.5 60.5t25 39t29.5 21t24 7.5v2q-9 1 -24 7.5t-29.5 21t-25 39t-10.5 60.5v178q0 14 -2 29t-8 27t-17.5 19.5t-29.5 7.5h-48 v54h63q21 0 40.5 -6.5t34.5 -21t24 -38.5t9 -59v-178q0 -53 20 -82t59 -29v-60z" />
    <glyph glyph-name="asciitilde" unicode="~" horiz-adv-x="666" 
d="M577 328q-10 -16 -23.5 -32.5t-30.5 -30t-37.5 -22t-44.5 -8.5q-14 0 -26.5 1.5t-25.5 5.5t-27 11t-32 18q-31 20 -54 30t-49 10q-17 0 -32 -7t-27 -17.5t-21 -23.5t-16 -25l-42 40q11 16 24.5 32.5t30 30t37 22t44.5 8.5q28 0 53.5 -7.5t56.5 -27.5q29 -19 54 -30 t49 -11q17 0 32 7t27 18t21.5 24t16.5 24z" />
    <glyph glyph-name="uni00A0" unicode="&#xa0;" horiz-adv-x="250" 
 />
    <glyph glyph-name="exclamdown" unicode="&#xa1;" horiz-adv-x="328" 
d="M218 431q0 -21 -15 -37.5t-39 -16.5t-39 16.5t-15 37.5t15 37.5t39 16.5t39 -16.5t15 -37.5zM200 -229h-72v516h72v-516z" />
    <glyph glyph-name="cent" unicode="&#xa2;" horiz-adv-x="580" 
d="M346 49q36 2 64 19.5t43 41.5l54 -41q-32 -38 -74 -58t-87 -22v-61h-48v63q-49 5 -88 25.5t-66 53t-41.5 74.5t-14.5 90t14.5 90t41.5 74.5t66 53t88 25.5v63h48v-61q45 -2 87 -22t74 -58l-54 -41q-15 24 -43 41.5t-64 19.5v-370zM298 417q-32 -6 -57.5 -22t-43.5 -40 t-27.5 -55t-9.5 -66t9.5 -66t27.5 -55t43.5 -40t57.5 -22v366z" />
    <glyph glyph-name="sterling" unicode="&#xa3;" horiz-adv-x="580" 
d="M417 335h-168v-275h262v-60h-436v60h102v275h-96v60h96v93q0 43 10.5 85.5t35 76.5t65.5 55t101 21q44 0 84.5 -14t70.5 -46l-47 -51q-20 23 -48 36.5t-63 13.5q-45 0 -72 -19t-41.5 -47t-19 -60t-4.5 -57v-87h168v-60z" />
    <glyph glyph-name="currency" unicode="&#xa4;" horiz-adv-x="580" 
d="M292 457q-38 0 -69 -13.5t-53 -37t-33.5 -55t-11.5 -66.5q0 -36 11.5 -67.5t33.5 -55.5t53 -37.5t69 -13.5t69 13.5t52.5 37.5t33.5 55.5t12 67.5q0 35 -12 66.5t-33.5 55t-52.5 37t-69 13.5zM480 431q23 -29 35 -65t12 -81t-13 -83.5t-37 -67.5l86 -86l-39 -40l-88 87 q-29 -22 -65.5 -34.5t-78.5 -12.5q-82 0 -145 49l-89 -89l-40 40l88 89q-48 57 -48 148q0 43 11.5 79t33.5 65l-85 85l40 39l85 -84q30 23 67 36.5t82 13.5q44 0 81 -13t66 -37l84 84l40 -39l-83 -83v0z" />
    <glyph glyph-name="yen" unicode="&#xa5;" horiz-adv-x="580" 
d="M256 223v105h-165v54h145l-226 326h89l193 -300l192 300h86l-224 -326h143v-54h-165v-105h165v-54h-165v-169h-68v169h-165v54h165z" />
    <glyph glyph-name="brokenbar" unicode="&#xa6;" horiz-adv-x="222" 
d="M141 175v-350h-60v350h60zM141 675v-350h-60v350h60z" />
    <glyph glyph-name="section" unicode="&#xa7;" horiz-adv-x="580" 
d="M259 410q-14 -2 -29.5 -7.5t-29 -16t-22 -27t-8.5 -39.5q0 -20 7 -34.5t21 -26t34 -21.5t46 -21l66 -30q12 3 25 10t23.5 18t17.5 26t7 35q0 22 -7.5 39t-21 29.5t-31 22t-37.5 17.5zM415 602q-5 11 -13.5 22.5t-22 20.5t-31.5 15t-41 6q-48 0 -78 -23.5t-30 -65.5 q0 -23 8.5 -40t22 -29.5t31 -21.5t36.5 -17l87 -41q42 -20 72.5 -53.5t30.5 -88.5q0 -50 -26 -83.5t-63 -47.5q35 -21 53 -51.5t18 -73.5q0 -42 -15.5 -72.5t-42 -51t-60.5 -30t-70 -9.5q-67 0 -120.5 28t-77.5 87l66 32q17 -47 53.5 -67t78.5 -20q18 0 38 4.5t37.5 15.5 t29 30t11.5 48q0 36 -21.5 58.5t-53.5 37.5l-127 61q-20 9 -37 21t-30 27.5t-20.5 36.5t-7.5 49q0 50 29.5 84t74.5 48q-11 7 -24.5 17t-25 24t-19.5 33.5t-8 45.5q0 40 15 70t40.5 49.5t58 29t67.5 9.5q67 0 109 -27.5t57 -66.5z" />
    <glyph glyph-name="dieresis" unicode="&#xa8;" 
d="M165 647q0 20 14 35.5t37 15.5t37 -15.5t14 -35.5t-14 -35.5t-37 -15.5t-37 15.5t-14 35.5zM-27 647q0 20 14 35.5t37 15.5t37 -15.5t14 -35.5t-14 -35.5t-37 -15.5t-37 15.5t-14 35.5z" />
    <glyph glyph-name="copyright" unicode="&#xa9;" horiz-adv-x="800" 
d="M80 353q0 -66 25.5 -124t69 -101.5t102 -68.5t124.5 -25t124 25t101.5 68.5t68.5 101.5t25 124t-25 124.5t-68.5 102t-101.5 69t-124 25.5t-124.5 -25.5t-102 -69t-69 -102t-25.5 -124.5zM20 353q0 79 30 147.5t81.5 119.5t121 80.5t148.5 29.5q78 0 147 -29.5 t120.5 -80.5t81.5 -119.5t30 -147.5q0 -78 -30 -146.5t-81.5 -119.5t-120.5 -80t-147 -29q-79 0 -148.5 29t-121 80t-81.5 119.5t-30 146.5zM580 224q-24 -37 -67 -64t-103 -27q-49 0 -90.5 17t-71.5 47t-47 71.5t-17 90.5t17 90t47 71t71.5 47t90.5 17q48 0 92.5 -21 t69.5 -58l-52 -40q-14 22 -43.5 40.5t-64.5 18.5q-37 0 -66.5 -13.5t-50 -36.5t-31.5 -52.5t-11 -62.5t10.5 -63t31 -53t49.5 -36.5t66 -13.5q32 0 63 15t55 50z" />
    <glyph glyph-name="ordfeminine" unicode="&#xaa;" horiz-adv-x="360" 
d="M229 566q-21 0 -44 -1.5t-42 -7.5t-31.5 -16.5t-12.5 -28.5q0 -25 18.5 -34.5t40.5 -9.5q41 0 63.5 23.5t22.5 59.5v15h-15zM244 614q0 31 -20.5 46t-52.5 15q-24 0 -46.5 -9t-36.5 -23l-32 35q22 20 53.5 31t66.5 11q63 0 93 -31.5t30 -78.5v-123q0 -14 1 -29.5t3 -26.5 h-52q-5 22 -5 41h-2q-33 -48 -98 -48q-18 0 -36.5 4.5t-34 14.5t-25.5 27t-10 41q0 32 18 51t47 28.5t65.5 12.5t73.5 3v8z" />
    <glyph glyph-name="guillemotleft" unicode="&#xab;" horiz-adv-x="482" 
d="M306 240l115 -176l-47 -33l-140 209l140 209l47 -33zM124 240l115 -176l-47 -33l-140 209l140 209l47 -33z" />
    <glyph glyph-name="logicalnot" unicode="&#xac;" horiz-adv-x="666" 
d="M588 130h-60v218h-450v60h510v-278z" />
    <glyph glyph-name="uni00AD" unicode="&#xad;" horiz-adv-x="320" 
d="M272 214h-224v57h224v-57z" />
    <glyph glyph-name="registered" unicode="&#xae;" horiz-adv-x="600" 
d="M294 510q20 0 38 7.5t18 30.5q0 21 -16.5 28t-34.5 7h-42v-73h37zM211 622h90q18 0 35 -4t30.5 -13t21.5 -23t8 -35q0 -28 -16 -45.5t-43 -23.5l69 -112h-56l-60 107h-33v-107h-46v256zM108 493q0 -39 15 -74t41 -61.5t61 -41.5t75 -15t75 15t61 41.5t41 61.5t15 74 q0 40 -15 75t-41 61t-61 41t-75 15t-75 -15t-61 -41t-41 -61t-15 -75zM72 493q0 47 18 88.5t49 72t72.5 48.5t88.5 18t88.5 -18t72.5 -48.5t49 -72t18 -88.5t-18 -88t-49 -71.5t-72.5 -48t-88.5 -17.5t-88.5 17.5t-72.5 48t-49 71.5t-18 88z" />
    <glyph glyph-name="macron" unicode="&#xaf;" 
d="M255 600h-270v54h270v-54z" />
    <glyph glyph-name="degree" unicode="&#xb0;" horiz-adv-x="400" 
d="M301 571q0 21 -8 39.5t-21.5 32t-32 21.5t-39.5 8t-39.5 -8t-32 -21.5t-21.5 -32t-8 -39.5t8 -39.5t21.5 -32t32 -21.5t39.5 -8t39.5 8t32 21.5t21.5 32t8 39.5zM349 571q0 -32 -11 -59.5t-31 -47.5t-47.5 -31t-59.5 -11t-59.5 11t-47.5 31t-31 47.5t-11 59.5t11 59.5 t31 47.5t47.5 31t59.5 11t59.5 -11t47.5 -31t31 -47.5t11 -59.5z" />
    <glyph glyph-name="plusminus" unicode="&#xb1;" horiz-adv-x="666" 
d="M78 108h510v-60h-510v60zM78 407h225v156h60v-156h225v-60h-225v-151h-60v151h-225v60z" />
    <glyph glyph-name="twosuperior" unicode="&#xb2;" horiz-adv-x="370" 
d="M319 290h-276v57l167 169q16 17 29.5 37.5t13.5 48.5q0 29 -19 45.5t-48 16.5q-28 0 -48 -19t-27 -51l-60 9q10 51 47 83.5t88 32.5q26 0 50 -7.5t42 -22t28.5 -36.5t10.5 -51q0 -22 -6.5 -40.5t-16.5 -34t-22.5 -29t-25.5 -26.5l-128 -128h201v-54z" />
    <glyph glyph-name="threesuperior" unicode="&#xb3;" horiz-adv-x="370" 
d="M137 535h27q35 0 59.5 16t24.5 54q0 28 -20 45t-49 17q-23 0 -42.5 -13t-32.5 -37l-50 26q23 40 56 58.5t71 18.5q26 0 49 -7t40.5 -21.5t27.5 -36t10 -49.5q0 -32 -15.5 -55.5t-41.5 -37.5q32 -12 50.5 -38t18.5 -64q0 -31 -11.5 -55t-30.5 -40t-44.5 -24t-53.5 -8 q-48 0 -84.5 23t-56.5 73l57 19q10 -29 32.5 -45t51.5 -16q31 0 55.5 18t24.5 55q0 20 -8.5 34t-22 22.5t-30.5 12.5t-35 4h-27v51z" />
    <glyph glyph-name="acute" unicode="&#xb4;" 
d="M118 564h-59l100 144h91z" />
    <glyph glyph-name="mu" unicode="&#xb5;" horiz-adv-x="556" 
d="M72 468h66v-259q0 -86 27.5 -123.5t99.5 -37.5q30 0 56 12t45 35t30 56.5t11 76.5v240h66v-365q0 -26 1.5 -51.5t3.5 -51.5h-71v76h-2q-11 -18 -28 -34t-38 -28t-44.5 -19t-46.5 -7q-69 0 -110 29v-245h-66v696z" />
    <glyph glyph-name="paragraph" unicode="&#xb6;" horiz-adv-x="600" 
d="M513 -126h-66v780h-124v-780h-66v442q-46 0 -84.5 14.5t-66 39.5t-43 59t-15.5 73q0 98 61 152t167 54h237v-834z" />
    <glyph glyph-name="periodcentered" unicode="&#xb7;" horiz-adv-x="260" 
d="M184 314q0 -21 -15 -37.5t-39 -16.5t-39 16.5t-15 37.5t15 37.5t39 16.5t39 -16.5t15 -37.5z" />
    <glyph glyph-name="cedilla" unicode="&#xb8;" 
d="M109 -75q13 4 35 4q30 0 56 -18t26 -54q0 -25 -11 -42t-28 -27t-38 -14t-41 -4t-46.5 5t-47.5 15l16 36q17 -8 35 -11t37 -3q8 0 19 2t21 7.5t17 14t7 20.5q0 20 -14.5 29.5t-39.5 9.5q-22 0 -43 -8l-18 15l62 98h43z" />
    <glyph glyph-name="onesuperior" unicode="&#xb9;" horiz-adv-x="370" 
d="M232 286h-61v346l-64 -57l-38 41l112 92h51v-422z" />
    <glyph glyph-name="ordmasculine" unicode="&#xba;" horiz-adv-x="360" 
d="M274 572q0 20 -6 38.5t-18 32.5t-29.5 22.5t-40.5 8.5t-40.5 -8.5t-29.5 -22.5t-18 -32.5t-6 -38.5t6 -38.5t18 -32.5t29.5 -22.5t40.5 -8.5t40.5 8.5t29.5 22.5t18 32.5t6 38.5zM332 572q0 -32 -11.5 -59.5t-31.5 -47t-48 -30.5t-61 -11t-61 11t-48 30.5t-31.5 47 t-11.5 59.5q0 33 11.5 60t31.5 46.5t48 30.5t61 11t61 -11t48 -30.5t31.5 -46.5t11.5 -60z" />
    <glyph glyph-name="guillemotright" unicode="&#xbb;" horiz-adv-x="482" 
d="M176 240l-115 176l47 33l140 -209l-140 -209l-47 33zM358 240l-115 176l47 33l140 -209l-140 -209l-47 33z" />
    <glyph glyph-name="onequarter" unicode="&#xbc;" horiz-adv-x="840" 
d="M217 -31l-52 27l451 743l51 -27zM232 286h-61v346l-64 -57l-38 41l112 92h51v-422zM665 340l-122 -188h125v188h-3zM723 152h60v-54h-60v-98h-55v98h-188v52l175 272h68v-270z" />
    <glyph glyph-name="onehalf" unicode="&#xbd;" horiz-adv-x="840" 
d="M232 286h-61v346l-64 -57l-38 41l112 92h51v-422zM217 -31l-52 27l451 743l51 -27zM786 0h-276v57l167 169q16 17 29.5 37.5t13.5 48.5q0 29 -19 45.5t-48 16.5q-28 0 -48 -19t-27 -51l-60 9q10 51 47 83.5t88 32.5q26 0 50 -7.5t42 -22t28.5 -36.5t10.5 -51 q0 -22 -6.5 -40.5t-16.5 -34t-22.5 -29t-25.5 -26.5l-128 -128h201v-54z" />
    <glyph glyph-name="threequarters" unicode="&#xbe;" horiz-adv-x="840" 
d="M217 -31l-52 27l451 743l51 -27zM137 535h27q35 0 59.5 16t24.5 54q0 28 -20 45t-49 17q-23 0 -42.5 -13t-32.5 -37l-50 26q23 40 56 58.5t71 18.5q26 0 49 -7t40.5 -21.5t27.5 -36t10 -49.5q0 -32 -15.5 -55.5t-41.5 -37.5q32 -12 50.5 -38t18.5 -64q0 -31 -11.5 -55 t-30.5 -40t-44.5 -24t-53.5 -8q-48 0 -84.5 23t-56.5 73l57 19q10 -29 32.5 -45t51.5 -16q31 0 55.5 18t24.5 55q0 20 -8.5 34t-22 22.5t-30.5 12.5t-35 4h-27v51zM665 340l-122 -188h125v188h-3zM723 152h60v-54h-60v-98h-55v98h-188v52l175 272h68v-270z" />
    <glyph glyph-name="questiondown" unicode="&#xbf;" horiz-adv-x="482" 
d="M188 431q0 21 15 37.5t39 16.5t39 -16.5t15 -37.5t-15 -37.5t-39 -16.5t-39 16.5t-15 37.5zM214 287h70v-60q0 -29 -6.5 -51t-18 -40t-26 -33t-29.5 -28l-28 -25q-25 -20 -41.5 -46t-16.5 -65q0 -28 10 -50t27 -37t39.5 -23t48.5 -8q54 0 87.5 33t41.5 84l68 -12 q-15 -78 -68.5 -122.5t-131.5 -44.5q-40 0 -75.5 11.5t-61.5 34t-41.5 55.5t-15.5 75q0 32 7 56t19.5 43t29.5 34.5t36 31.5q21 17 35.5 31t23.5 29.5t13 34.5t4 46v46z" />
    <glyph glyph-name="Agrave" unicode="&#xc0;" horiz-adv-x="700" 
d="M193 252h312l-156 376zM89 0h-79l306 708h70l304 -708h-80l-78 186h-366zM192 908h91l100 -144h-59z" />
    <glyph glyph-name="Aacute" unicode="&#xc1;" horiz-adv-x="700" 
d="M193 252h312l-156 376zM89 0h-79l306 708h70l304 -708h-80l-78 186h-366zM379 764h-59l100 144h91z" />
    <glyph glyph-name="Acircumflex" unicode="&#xc2;" horiz-adv-x="700" 
d="M193 252h312l-156 376zM89 0h-79l306 708h70l304 -708h-80l-78 186h-366zM498 764h-66l-83 108l-83 -108h-66l109 144h80z" />
    <glyph glyph-name="Atilde" unicode="&#xc3;" horiz-adv-x="700" 
d="M193 252h312l-156 376zM89 0h-79l306 708h70l304 -708h-80l-78 186h-366zM188 776q3 19 9.5 38t17.5 33.5t26.5 23.5t38.5 9q18 0 36.5 -7t36.5 -16q18 -8 35 -15.5t32 -7.5q23 0 33.5 15.5t15.5 34.5h43q-3 -20 -9.5 -38.5t-17.5 -33t-27 -23.5t-38 -9q-18 0 -37 7 t-36 16t-34 16t-33 7q-23 0 -33.5 -15.5t-15.5 -34.5h-43z" />
    <glyph glyph-name="Adieresis" unicode="&#xc4;" horiz-adv-x="700" 
d="M193 252h312l-156 376zM89 0h-79l306 708h70l304 -708h-80l-78 186h-366zM396 847q0 20 14 35.5t37 15.5t37 -15.5t14 -35.5t-14 -35.5t-37 -15.5t-37 15.5t-14 35.5zM204 847q0 20 14 35.5t37 15.5t37 -15.5t14 -35.5t-14 -35.5t-37 -15.5t-37 15.5t-14 35.5z" />
    <glyph glyph-name="Aring" unicode="&#xc5;" horiz-adv-x="700" 
d="M193 252h312l-156 376zM89 0h-79l306 708h70l304 -708h-80l-78 186h-366zM410 850q0 25 -17.5 42t-42.5 17t-42.5 -17t-17.5 -42t17.5 -42t42.5 -17t42.5 17t17.5 42zM446 850q0 -20 -7.5 -37.5t-21 -30.5t-31 -20t-36.5 -7q-20 0 -37 7t-30.5 20t-21 30.5t-7.5 37.5 t7.5 37.5t21 30t30.5 20t37 7.5q19 0 36.5 -7.5t31 -20t21 -30t7.5 -37.5z" />
    <glyph glyph-name="AE" unicode="&#xc6;" horiz-adv-x="990" 
d="M519 261v383h-14l-247 -383h261zM591 64h345v-64h-417v198h-298l-128 -198h-82l461 708h452v-64h-333v-244h309v-63h-309v-273z" />
    <glyph glyph-name="Ccedilla" unicode="&#xc7;" horiz-adv-x="720" 
d="M690 114q-18 -27 -43.5 -51t-59 -42t-74 -28.5t-88.5 -10.5l-35 -57q13 4 35 4q30 0 56 -18t26 -54q0 -25 -11 -42t-28 -27t-38 -14t-41 -4t-46.5 5t-47.5 15l16 36q17 -8 35 -11t37 -3q8 0 19 2t21 7.5t17 14t7 20.5q0 20 -14.5 29.5t-39.5 9.5q-22 0 -43 -8l-18 15 l52 82q-72 7 -132.5 37.5t-104 79t-67.5 113.5t-24 140q0 81 28 149t77.5 117.5t117 77.5t146.5 28q39 0 76.5 -8t70.5 -22.5t60 -35t45 -46.5l-60 -44q-11 17 -29.5 34t-43.5 30t-54.5 21t-63.5 8q-69 0 -123.5 -25t-92.5 -67.5t-58 -98.5t-20 -118t20.5 -118t58.5 -98.5 t92.5 -67.5t122.5 -25q61 0 116 25t92 80z" />
    <glyph glyph-name="Egrave" unicode="&#xc8;" horiz-adv-x="592" 
d="M166 64h379v-64h-451v708h439v-64h-367v-244h343v-63h-343v-273zM184 908h91l100 -144h-59z" />
    <glyph glyph-name="Eacute" unicode="&#xc9;" horiz-adv-x="592" 
d="M166 64h379v-64h-451v708h439v-64h-367v-244h343v-63h-343v-273zM324 764h-59l100 144h91z" />
    <glyph glyph-name="Ecircumflex" unicode="&#xca;" horiz-adv-x="592" 
d="M166 64h379v-64h-451v708h439v-64h-367v-244h343v-63h-343v-273zM465 764h-66l-83 108l-83 -108h-66l109 144h80z" />
    <glyph glyph-name="Edieresis" unicode="&#xcb;" horiz-adv-x="592" 
d="M166 64h379v-64h-451v708h439v-64h-367v-244h343v-63h-343v-273zM361 847q0 20 14 35.5t37 15.5t37 -15.5t14 -35.5t-14 -35.5t-37 -15.5t-37 15.5t-14 35.5zM169 847q0 20 14 35.5t37 15.5t37 -15.5t14 -35.5t-14 -35.5t-37 -15.5t-37 15.5t-14 35.5z" />
    <glyph glyph-name="Igrave" unicode="&#xcc;" horiz-adv-x="260" 
d="M166 0h-72v708h72v-708zM-26 908h91l100 -144h-59z" />
    <glyph glyph-name="Iacute" unicode="&#xcd;" horiz-adv-x="260" 
d="M166 0h-72v708h72v-708zM153 764h-59l100 144h91z" />
    <glyph glyph-name="Icircumflex" unicode="&#xce;" horiz-adv-x="260" 
d="M166 0h-72v708h72v-708zM279 764h-66l-83 108l-83 -108h-66l109 144h80z" />
    <glyph glyph-name="Idieresis" unicode="&#xcf;" horiz-adv-x="260" 
d="M166 0h-72v708h72v-708zM175 847q0 20 14 35.5t37 15.5t37 -15.5t14 -35.5t-14 -35.5t-37 -15.5t-37 15.5t-14 35.5zM-17 847q0 20 14 35.5t37 15.5t37 -15.5t14 -35.5t-14 -35.5t-37 -15.5t-37 15.5t-14 35.5z" />
    <glyph glyph-name="Eth" unicode="&#xd0;" horiz-adv-x="757" 
d="M158 66h140q81 0 140.5 24.5t99 65t58.5 92t19 106.5t-19 106.5t-58.5 92t-99 65t-140.5 24.5h-140v-241h258v-54h-258v-281zM86 347h-73v54h73v307h235q66 0 132.5 -22t120 -66.5t86.5 -111t33 -154.5q0 -89 -33 -155t-86.5 -110.5t-120 -66.5t-132.5 -22h-235v347z" />
    <glyph glyph-name="Ntilde" unicode="&#xd1;" horiz-adv-x="764" 
d="M596 105h2v603h72v-708h-90l-412 609h-2v-609h-72v708h90zM223 776q3 19 9.5 38t17.5 33.5t26.5 23.5t38.5 9q18 0 36.5 -7t36.5 -16q18 -8 35 -15.5t32 -7.5q23 0 33.5 15.5t15.5 34.5h43q-3 -20 -9.5 -38.5t-17.5 -33t-27 -23.5t-38 -9q-18 0 -37 7t-36 16t-34 16 t-33 7q-23 0 -33.5 -15.5t-15.5 -34.5h-43z" />
    <glyph glyph-name="Ograve" unicode="&#xd2;" horiz-adv-x="850" 
d="M718 354q0 62 -20 118t-58 98.5t-92.5 67.5t-122.5 25t-122.5 -25t-92.5 -67.5t-58 -98.5t-20 -118t20 -118t58 -98t92.5 -67t122.5 -25t122.5 25t92.5 67t58 98t20 118zM794 354q0 -81 -28 -149t-77.5 -117.5t-117 -77.5t-146.5 -28t-146.5 28t-117 77.5t-77.5 117.5 t-28 149t28 149t77.5 117.5t117 77.5t146.5 28t146.5 -28t117 -77.5t77.5 -117.5t28 -149zM307 908h91l100 -144h-59z" />
    <glyph glyph-name="Oacute" unicode="&#xd3;" horiz-adv-x="850" 
d="M718 354q0 62 -20 118t-58 98.5t-92.5 67.5t-122.5 25t-122.5 -25t-92.5 -67.5t-58 -98.5t-20 -118t20 -118t58 -98t92.5 -67t122.5 -25t122.5 25t92.5 67t58 98t20 118zM794 354q0 -81 -28 -149t-77.5 -117.5t-117 -77.5t-146.5 -28t-146.5 28t-117 77.5t-77.5 117.5 t-28 149t28 149t77.5 117.5t117 77.5t146.5 28t146.5 -28t117 -77.5t77.5 -117.5t28 -149zM426 764h-59l100 144h91z" />
    <glyph glyph-name="Ocircumflex" unicode="&#xd4;" horiz-adv-x="850" 
d="M718 354q0 62 -20 118t-58 98.5t-92.5 67.5t-122.5 25t-122.5 -25t-92.5 -67.5t-58 -98.5t-20 -118t20 -118t58 -98t92.5 -67t122.5 -25t122.5 25t92.5 67t58 98t20 118zM794 354q0 -81 -28 -149t-77.5 -117.5t-117 -77.5t-146.5 -28t-146.5 28t-117 77.5t-77.5 117.5 t-28 149t28 149t77.5 117.5t117 77.5t146.5 28t146.5 -28t117 -77.5t77.5 -117.5t28 -149zM574 764h-66l-83 108l-83 -108h-66l109 144h80z" />
    <glyph glyph-name="Otilde" unicode="&#xd5;" horiz-adv-x="850" 
d="M718 354q0 62 -20 118t-58 98.5t-92.5 67.5t-122.5 25t-122.5 -25t-92.5 -67.5t-58 -98.5t-20 -118t20 -118t58 -98t92.5 -67t122.5 -25t122.5 25t92.5 67t58 98t20 118zM794 354q0 -81 -28 -149t-77.5 -117.5t-117 -77.5t-146.5 -28t-146.5 28t-117 77.5t-77.5 117.5 t-28 149t28 149t77.5 117.5t117 77.5t146.5 28t146.5 -28t117 -77.5t77.5 -117.5t28 -149zM263 776q3 19 9.5 38t17.5 33.5t26.5 23.5t38.5 9q18 0 36.5 -7t36.5 -16q18 -8 35 -15.5t32 -7.5q23 0 33.5 15.5t15.5 34.5h43q-3 -20 -9.5 -38.5t-17.5 -33t-27 -23.5t-38 -9 q-18 0 -37 7t-36 16t-34 16t-33 7q-23 0 -33.5 -15.5t-15.5 -34.5h-43z" />
    <glyph glyph-name="Odieresis" unicode="&#xd6;" horiz-adv-x="850" 
d="M718 354q0 62 -20 118t-58 98.5t-92.5 67.5t-122.5 25t-122.5 -25t-92.5 -67.5t-58 -98.5t-20 -118t20 -118t58 -98t92.5 -67t122.5 -25t122.5 25t92.5 67t58 98t20 118zM794 354q0 -81 -28 -149t-77.5 -117.5t-117 -77.5t-146.5 -28t-146.5 28t-117 77.5t-77.5 117.5 t-28 149t28 149t77.5 117.5t117 77.5t146.5 28t146.5 -28t117 -77.5t77.5 -117.5t28 -149zM470 847q0 20 14 35.5t37 15.5t37 -15.5t14 -35.5t-14 -35.5t-37 -15.5t-37 15.5t-14 35.5zM278 847q0 20 14 35.5t37 15.5t37 -15.5t14 -35.5t-14 -35.5t-37 -15.5t-37 15.5 t-14 35.5z" />
    <glyph glyph-name="multiply" unicode="&#xd7;" horiz-adv-x="666" 
d="M333 346l158 159l43 -42l-159 -160l159 -159l-43 -43l-158 159l-159 -159l-42 43l159 159l-159 160l42 42z" />
    <glyph glyph-name="Oslash" unicode="&#xd8;" horiz-adv-x="850" 
d="M616 595q-35 32 -83.5 50t-107.5 18q-69 0 -123.5 -25t-92 -67.5t-57.5 -98.5t-20 -118q0 -58 17.5 -111t51.5 -93zM236 113q37 -32 83.5 -49.5t105.5 -17.5q69 0 123.5 25t92 67t57.5 98t20 118q0 57 -17 110t-50 94zM698 610q46 -49 71 -114t25 -142q0 -81 -28 -149 t-77.5 -117.5t-117 -77.5t-146.5 -28q-69 0 -129 21.5t-107 59.5l-76 -81l-37 34l76 82q-46 49 -71 114t-25 142q0 81 28 149t77.5 117.5t117 77.5t146.5 28q69 0 128.5 -21t107.5 -60l76 81l37 -34z" />
    <glyph glyph-name="Ugrave" unicode="&#xd9;" horiz-adv-x="710" 
d="M355 -18q-80 0 -131 27.5t-81 69.5t-41.5 91.5t-11.5 93.5v444h72v-436q0 -43 10 -83.5t32.5 -72t59.5 -51t91 -19.5t91 19.5t59.5 51t32.5 72t10 83.5v436h72v-444q0 -44 -11.5 -93.5t-41.5 -91.5t-81.5 -69.5t-130.5 -27.5zM224 908h91l100 -144h-59z" />
    <glyph glyph-name="Uacute" unicode="&#xda;" horiz-adv-x="710" 
d="M355 -18q-80 0 -131 27.5t-81 69.5t-41.5 91.5t-11.5 93.5v444h72v-436q0 -43 10 -83.5t32.5 -72t59.5 -51t91 -19.5t91 19.5t59.5 51t32.5 72t10 83.5v436h72v-444q0 -44 -11.5 -93.5t-41.5 -91.5t-81.5 -69.5t-130.5 -27.5zM365 764h-59l100 144h91z" />
    <glyph glyph-name="Ucircumflex" unicode="&#xdb;" horiz-adv-x="710" 
d="M355 -18q-80 0 -131 27.5t-81 69.5t-41.5 91.5t-11.5 93.5v444h72v-436q0 -43 10 -83.5t32.5 -72t59.5 -51t91 -19.5t91 19.5t59.5 51t32.5 72t10 83.5v436h72v-444q0 -44 -11.5 -93.5t-41.5 -91.5t-81.5 -69.5t-130.5 -27.5zM504 764h-66l-83 108l-83 -108h-66l109 144 h80z" />
    <glyph glyph-name="Udieresis" unicode="&#xdc;" horiz-adv-x="710" 
d="M355 -18q-80 0 -131 27.5t-81 69.5t-41.5 91.5t-11.5 93.5v444h72v-436q0 -43 10 -83.5t32.5 -72t59.5 -51t91 -19.5t91 19.5t59.5 51t32.5 72t10 83.5v436h72v-444q0 -44 -11.5 -93.5t-41.5 -91.5t-81.5 -69.5t-130.5 -27.5zM401 847q0 20 14 35.5t37 15.5t37 -15.5 t14 -35.5t-14 -35.5t-37 -15.5t-37 15.5t-14 35.5zM209 847q0 20 14 35.5t37 15.5t37 -15.5t14 -35.5t-14 -35.5t-37 -15.5t-37 15.5t-14 35.5z" />
    <glyph glyph-name="Yacute" unicode="&#xdd;" horiz-adv-x="602" 
d="M337 0h-72v305l-265 403h90l213 -343l215 343h84l-265 -403v-305zM334 764h-59l100 144h91z" />
    <glyph glyph-name="Thorn" unicode="&#xde;" horiz-adv-x="580" 
d="M166 237h116q85 0 129 32t44 95q0 66 -45.5 95.5t-127.5 29.5h-116v-252zM94 708h72v-155h128q54 0 98 -11.5t75.5 -35t48.5 -59t17 -83.5t-17.5 -83.5t-49 -59t-76 -35.5t-98.5 -12h-126v-174h-72v708z" />
    <glyph glyph-name="germandbls" unicode="&#xdf;" horiz-adv-x="597" 
d="M156 0h-68v544q0 39 9.5 79t33.5 72t64.5 52.5t102.5 20.5q38 0 72.5 -12t61 -34.5t42.5 -55.5t16 -75q0 -117 -116 -159v-2q38 -5 69.5 -21.5t54 -43.5t35 -63t12.5 -79q0 -53 -17 -96.5t-48.5 -74.5t-75.5 -47.5t-99 -16.5q-12 0 -27.5 1.5t-27.5 3.5v57q10 -2 23.5 -3 t24.5 -1q80 0 128 47t48 131q0 87 -53 131t-140 44h-9v60h8q61 0 101 30.5t40 95.5q0 30 -10 53t-27.5 38.5t-40.5 23.5t-48 8q-44 0 -71 -16t-42 -40.5t-20.5 -54t-5.5 -55.5v-542z" />
    <glyph glyph-name="agrave" unicode="&#xe0;" horiz-adv-x="534" 
d="M365 234q-42 0 -84.5 -3.5t-77 -14t-56.5 -30.5t-22 -53q0 -25 9.5 -42t25.5 -27.5t35.5 -15t39.5 -4.5q36 0 64 12.5t47 34t29 49.5t10 59v35h-20zM385 302q0 61 -32 91t-93 30q-42 0 -78 -15t-61 -40l-38 45q29 29 76.5 48t107.5 19q38 0 71 -10.5t58 -31.5t39 -53 t14 -75v-205q0 -27 2 -56t6 -49h-61q-3 17 -5 37t-2 39h-2q-32 -47 -72.5 -67.5t-97.5 -20.5q-27 0 -55.5 7.5t-52 24.5t-39 44t-15.5 66q0 54 27.5 85.5t73.5 47t105.5 20t123.5 4.5v15zM144 708h91l100 -144h-59z" />
    <glyph glyph-name="aacute" unicode="&#xe1;" horiz-adv-x="534" 
d="M365 234q-42 0 -84.5 -3.5t-77 -14t-56.5 -30.5t-22 -53q0 -25 9.5 -42t25.5 -27.5t35.5 -15t39.5 -4.5q36 0 64 12.5t47 34t29 49.5t10 59v35h-20zM385 302q0 61 -32 91t-93 30q-42 0 -78 -15t-61 -40l-38 45q29 29 76.5 48t107.5 19q38 0 71 -10.5t58 -31.5t39 -53 t14 -75v-205q0 -27 2 -56t6 -49h-61q-3 17 -5 37t-2 39h-2q-32 -47 -72.5 -67.5t-97.5 -20.5q-27 0 -55.5 7.5t-52 24.5t-39 44t-15.5 66q0 54 27.5 85.5t73.5 47t105.5 20t123.5 4.5v15zM274 564h-59l100 144h91z" />
    <glyph glyph-name="acircumflex" unicode="&#xe2;" horiz-adv-x="534" 
d="M365 234q-42 0 -84.5 -3.5t-77 -14t-56.5 -30.5t-22 -53q0 -25 9.5 -42t25.5 -27.5t35.5 -15t39.5 -4.5q36 0 64 12.5t47 34t29 49.5t10 59v35h-20zM385 302q0 61 -32 91t-93 30q-42 0 -78 -15t-61 -40l-38 45q29 29 76.5 48t107.5 19q38 0 71 -10.5t58 -31.5t39 -53 t14 -75v-205q0 -27 2 -56t6 -49h-61q-3 17 -5 37t-2 39h-2q-32 -47 -72.5 -67.5t-97.5 -20.5q-27 0 -55.5 7.5t-52 24.5t-39 44t-15.5 66q0 54 27.5 85.5t73.5 47t105.5 20t123.5 4.5v15zM418 564h-66l-83 108l-83 -108h-66l109 144h80z" />
    <glyph glyph-name="atilde" unicode="&#xe3;" horiz-adv-x="534" 
d="M365 234q-42 0 -84.5 -3.5t-77 -14t-56.5 -30.5t-22 -53q0 -25 9.5 -42t25.5 -27.5t35.5 -15t39.5 -4.5q36 0 64 12.5t47 34t29 49.5t10 59v35h-20zM385 302q0 61 -32 91t-93 30q-42 0 -78 -15t-61 -40l-38 45q29 29 76.5 48t107.5 19q38 0 71 -10.5t58 -31.5t39 -53 t14 -75v-205q0 -27 2 -56t6 -49h-61q-3 17 -5 37t-2 39h-2q-32 -47 -72.5 -67.5t-97.5 -20.5q-27 0 -55.5 7.5t-52 24.5t-39 44t-15.5 66q0 54 27.5 85.5t73.5 47t105.5 20t123.5 4.5v15zM103 576q3 19 9.5 38t17.5 33.5t26.5 23.5t38.5 9q18 0 36.5 -7t36.5 -16 q18 -8 35 -15.5t32 -7.5q23 0 33.5 15.5t15.5 34.5h43q-3 -20 -9.5 -38.5t-17.5 -33t-27 -23.5t-38 -9q-18 0 -37 7t-36 16t-34 16t-33 7q-23 0 -33.5 -15.5t-15.5 -34.5h-43z" />
    <glyph glyph-name="adieresis" unicode="&#xe4;" horiz-adv-x="534" 
d="M365 234q-42 0 -84.5 -3.5t-77 -14t-56.5 -30.5t-22 -53q0 -25 9.5 -42t25.5 -27.5t35.5 -15t39.5 -4.5q36 0 64 12.5t47 34t29 49.5t10 59v35h-20zM385 302q0 61 -32 91t-93 30q-42 0 -78 -15t-61 -40l-38 45q29 29 76.5 48t107.5 19q38 0 71 -10.5t58 -31.5t39 -53 t14 -75v-205q0 -27 2 -56t6 -49h-61q-3 17 -5 37t-2 39h-2q-32 -47 -72.5 -67.5t-97.5 -20.5q-27 0 -55.5 7.5t-52 24.5t-39 44t-15.5 66q0 54 27.5 85.5t73.5 47t105.5 20t123.5 4.5v15zM311 647q0 20 14 35.5t37 15.5t37 -15.5t14 -35.5t-14 -35.5t-37 -15.5t-37 15.5 t-14 35.5zM119 647q0 20 14 35.5t37 15.5t37 -15.5t14 -35.5t-14 -35.5t-37 -15.5t-37 15.5t-14 35.5z" />
    <glyph glyph-name="aring" unicode="&#xe5;" horiz-adv-x="534" 
d="M365 234q-42 0 -84.5 -3.5t-77 -14t-56.5 -30.5t-22 -53q0 -25 9.5 -42t25.5 -27.5t35.5 -15t39.5 -4.5q36 0 64 12.5t47 34t29 49.5t10 59v35h-20zM385 302q0 61 -32 91t-93 30q-42 0 -78 -15t-61 -40l-38 45q29 29 76.5 48t107.5 19q38 0 71 -10.5t58 -31.5t39 -53 t14 -75v-205q0 -27 2 -56t6 -49h-61q-3 17 -5 37t-2 39h-2q-32 -47 -72.5 -67.5t-97.5 -20.5q-27 0 -55.5 7.5t-52 24.5t-39 44t-15.5 66q0 54 27.5 85.5t73.5 47t105.5 20t123.5 4.5v15zM325 650q0 25 -17.5 42t-42.5 17t-42.5 -17t-17.5 -42t17.5 -42t42.5 -17t42.5 17 t17.5 42zM361 650q0 -20 -7.5 -37.5t-21 -30.5t-31 -20t-36.5 -7q-20 0 -37 7t-30.5 20t-21 30.5t-7.5 37.5t7.5 37.5t21 30t30.5 20t37 7.5q19 0 36.5 -7.5t31 -20t21 -30t7.5 -37.5z" />
    <glyph glyph-name="ae" unicode="&#xe6;" horiz-adv-x="870" 
d="M814 248v-17t-1 -15h-370q1 -35 13.5 -66.5t34.5 -54.5t51.5 -36.5t63.5 -13.5q51 0 87.5 24.5t55.5 56.5l49 -39q-40 -53 -88 -76t-104 -23q-66 0 -114.5 29t-71.5 80q-14 -32 -34.5 -53t-46 -33.5t-54.5 -17.5t-60 -5q-30 0 -60.5 7.5t-54.5 23.5t-39 42t-15 64 q0 50 28 79t73.5 43.5t104 18.5t118.5 4v15q0 61 -29.5 99.5t-90.5 38.5q-42 0 -79.5 -15t-64.5 -40l-39 44q30 29 81.5 48.5t111.5 19.5q56 0 96.5 -25.5t57.5 -72.5q28 45 74.5 71.5t102.5 26.5q52 0 92 -18.5t67 -50t40.5 -73.5t13.5 -90zM360 216q-45 0 -87.5 -2.5 t-75 -11.5t-52 -27t-19.5 -49q0 -24 9 -40t24.5 -25.5t35.5 -13.5t42 -4q72 0 107.5 38t35.5 101v34h-20zM745 270q0 67 -38 110t-106 43q-31 0 -58.5 -12.5t-48.5 -34t-34 -49t-14 -57.5h299z" />
    <glyph glyph-name="ccedilla" unicode="&#xe7;" horiz-adv-x="500" 
d="M427 361q-17 27 -49.5 44.5t-70.5 17.5q-41 0 -74 -14.5t-56.5 -40t-36 -60t-12.5 -74.5t12.5 -74t35.5 -59.5t56 -40t74 -14.5q45 0 76 17t51 44l51 -38q-29 -36 -71 -57.5t-101 -23.5l-39 -63q13 4 35 4q30 0 56 -18t26 -54q0 -25 -11 -42t-28 -27t-38 -14t-41 -4 t-46.5 5t-47.5 15l16 36q17 -8 35 -11t37 -3q8 0 19 2t21 7.5t17 14t7 20.5q0 20 -14.5 29.5t-39.5 9.5q-22 0 -43 -8l-18 15l55 88q-49 6 -88.5 26.5t-67.5 52.5t-43 74t-15 91q0 53 18 98t50.5 78t78.5 51.5t103 18.5q47 0 95.5 -20.5t78.5 -60.5z" />
    <glyph glyph-name="egrave" unicode="&#xe8;" horiz-adv-x="572" 
d="M516 248v-15t-1 -17h-388q1 -35 14 -66t36 -54t54 -36.5t67 -13.5q53 0 91.5 24.5t58.5 56.5l51 -40q-42 -53 -92.5 -76t-108.5 -23q-52 0 -96.5 18.5t-76.5 51.5t-50.5 78t-18.5 98t18 98t50 78t75 51.5t93 18.5q55 0 97 -18.5t70 -50t42.5 -73.5t14.5 -90zM447 270 q-3 66 -42.5 109.5t-112.5 43.5q-34 0 -63 -12.5t-51 -34t-35 -49t-15 -57.5h319zM150 708h91l100 -144h-59z" />
    <glyph glyph-name="eacute" unicode="&#xe9;" horiz-adv-x="572" 
d="M516 248v-15t-1 -17h-388q1 -35 14 -66t36 -54t54 -36.5t67 -13.5q53 0 91.5 24.5t58.5 56.5l51 -40q-42 -53 -92.5 -76t-108.5 -23q-52 0 -96.5 18.5t-76.5 51.5t-50.5 78t-18.5 98t18 98t50 78t75 51.5t93 18.5q55 0 97 -18.5t70 -50t42.5 -73.5t14.5 -90zM447 270 q-3 66 -42.5 109.5t-112.5 43.5q-34 0 -63 -12.5t-51 -34t-35 -49t-15 -57.5h319zM310 564h-59l100 144h91z" />
    <glyph glyph-name="ecircumflex" unicode="&#xea;" horiz-adv-x="572" 
d="M516 248v-15t-1 -17h-388q1 -35 14 -66t36 -54t54 -36.5t67 -13.5q53 0 91.5 24.5t58.5 56.5l51 -40q-42 -53 -92.5 -76t-108.5 -23q-52 0 -96.5 18.5t-76.5 51.5t-50.5 78t-18.5 98t18 98t50 78t75 51.5t93 18.5q55 0 97 -18.5t70 -50t42.5 -73.5t14.5 -90zM447 270 q-3 66 -42.5 109.5t-112.5 43.5q-34 0 -63 -12.5t-51 -34t-35 -49t-15 -57.5h319zM448 564h-66l-83 108l-83 -108h-66l109 144h80z" />
    <glyph glyph-name="edieresis" unicode="&#xeb;" horiz-adv-x="572" 
d="M516 248v-15t-1 -17h-388q1 -35 14 -66t36 -54t54 -36.5t67 -13.5q53 0 91.5 24.5t58.5 56.5l51 -40q-42 -53 -92.5 -76t-108.5 -23q-52 0 -96.5 18.5t-76.5 51.5t-50.5 78t-18.5 98t18 98t50 78t75 51.5t93 18.5q55 0 97 -18.5t70 -50t42.5 -73.5t14.5 -90zM447 270 q-3 66 -42.5 109.5t-112.5 43.5q-34 0 -63 -12.5t-51 -34t-35 -49t-15 -57.5h319zM344 647q0 20 14 35.5t37 15.5t37 -15.5t14 -35.5t-14 -35.5t-37 -15.5t-37 15.5t-14 35.5zM152 647q0 20 14 35.5t37 15.5t37 -15.5t14 -35.5t-14 -35.5t-37 -15.5t-37 15.5t-14 35.5z" />
    <glyph glyph-name="igrave" unicode="&#xec;" horiz-adv-x="250" 
d="M159 0h-68v468h68v-468zM-33 708h91l100 -144h-59z" />
    <glyph glyph-name="iacute" unicode="&#xed;" horiz-adv-x="250" 
d="M159 0h-68v468h68v-468zM150 564h-59l100 144h91z" />
    <glyph glyph-name="icircumflex" unicode="&#xee;" horiz-adv-x="250" 
d="M159 0h-68v468h68v-468zM276 564h-66l-83 108l-83 -108h-66l109 144h80z" />
    <glyph glyph-name="idieresis" unicode="&#xef;" horiz-adv-x="250" 
d="M159 0h-68v468h68v-468zM171 647q0 20 14 35.5t37 15.5t37 -15.5t14 -35.5t-14 -35.5t-37 -15.5t-37 15.5t-14 35.5zM-21 647q0 20 14 35.5t37 15.5t37 -15.5t14 -35.5t-14 -35.5t-37 -15.5t-37 15.5t-14 35.5z" />
    <glyph glyph-name="eth" unicode="&#xf0;" horiz-adv-x="611" 
d="M352 660q41 -38 76 -84t61 -98.5t41 -109.5t15 -116q0 -45 -13 -92t-42.5 -85t-77 -62.5t-116.5 -24.5q-54 0 -99.5 18.5t-78.5 51.5t-51.5 78t-18.5 98t18.5 98t51.5 78t78.5 51.5t99.5 18.5q44 0 79 -14t71 -44l2 2q-27 57 -67.5 110.5t-88.5 94.5l-112 -57l-36 36 l110 56q-25 24 -51.5 43t-48.5 34l59 37q26 -20 51.5 -40.5t48.5 -41.5l102 53l40 -35zM120 234q0 -39 12.5 -73t35 -59t55 -39.5t73.5 -14.5t73.5 14.5t55.5 39.5t35.5 59t12.5 73t-12.5 73t-35.5 59t-55.5 39.5t-73.5 14.5t-73.5 -14.5t-55 -39.5t-35 -59t-12.5 -73z" />
    <glyph glyph-name="ntilde" unicode="&#xf1;" horiz-adv-x="581" 
d="M151 468q2 -19 3 -42t1 -38h2q20 41 65 66.5t95 25.5q89 0 133.5 -53t44.5 -140v-287h-68v259q0 37 -6 67t-20.5 51.5t-39 33.5t-61.5 12q-27 0 -52.5 -11t-45.5 -33.5t-32 -57t-12 -81.5v-240h-68v365q0 19 -1 49t-3 54h65zM131 576q3 19 9.5 38t17.5 33.5t26.5 23.5 t38.5 9q18 0 36.5 -7t36.5 -16q18 -8 35 -15.5t32 -7.5q23 0 33.5 15.5t15.5 34.5h43q-3 -20 -9.5 -38.5t-17.5 -33t-27 -23.5t-38 -9q-18 0 -37 7t-36 16t-34 16t-33 7q-23 0 -33.5 -15.5t-15.5 -34.5h-43z" />
    <glyph glyph-name="ograve" unicode="&#xf2;" horiz-adv-x="611" 
d="M483 234q0 39 -12.5 73.5t-35.5 60t-56 40.5t-74 15t-73.5 -15t-55.5 -40.5t-35.5 -60t-12.5 -73.5t12.5 -73.5t35.5 -60t55.5 -40t73.5 -14.5t74 14.5t56 40t35.5 60t12.5 73.5zM555 234q0 -53 -18.5 -98t-51.5 -78t-79 -51.5t-101 -18.5q-54 0 -100 18.5t-79 51.5 t-51.5 78t-18.5 98t18.5 98t51.5 78t79 51.5t100 18.5q55 0 101 -18.5t79 -51.5t51.5 -78t18.5 -98zM153 708h91l100 -144h-59z" />
    <glyph glyph-name="oacute" unicode="&#xf3;" horiz-adv-x="611" 
d="M483 234q0 39 -12.5 73.5t-35.5 60t-56 40.5t-74 15t-73.5 -15t-55.5 -40.5t-35.5 -60t-12.5 -73.5t12.5 -73.5t35.5 -60t55.5 -40t73.5 -14.5t74 14.5t56 40t35.5 60t12.5 73.5zM555 234q0 -53 -18.5 -98t-51.5 -78t-79 -51.5t-101 -18.5q-54 0 -100 18.5t-79 51.5 t-51.5 78t-18.5 98t18.5 98t51.5 78t79 51.5t100 18.5q55 0 101 -18.5t79 -51.5t51.5 -78t18.5 -98zM323 564h-59l100 144h91z" />
    <glyph glyph-name="ocircumflex" unicode="&#xf4;" horiz-adv-x="611" 
d="M483 234q0 39 -12.5 73.5t-35.5 60t-56 40.5t-74 15t-73.5 -15t-55.5 -40.5t-35.5 -60t-12.5 -73.5t12.5 -73.5t35.5 -60t55.5 -40t73.5 -14.5t74 14.5t56 40t35.5 60t12.5 73.5zM555 234q0 -53 -18.5 -98t-51.5 -78t-79 -51.5t-101 -18.5q-54 0 -100 18.5t-79 51.5 t-51.5 78t-18.5 98t18.5 98t51.5 78t79 51.5t100 18.5q55 0 101 -18.5t79 -51.5t51.5 -78t18.5 -98zM454 564h-66l-83 108l-83 -108h-66l109 144h80z" />
    <glyph glyph-name="otilde" unicode="&#xf5;" horiz-adv-x="611" 
d="M483 234q0 39 -12.5 73.5t-35.5 60t-56 40.5t-74 15t-73.5 -15t-55.5 -40.5t-35.5 -60t-12.5 -73.5t12.5 -73.5t35.5 -60t55.5 -40t73.5 -14.5t74 14.5t56 40t35.5 60t12.5 73.5zM555 234q0 -53 -18.5 -98t-51.5 -78t-79 -51.5t-101 -18.5q-54 0 -100 18.5t-79 51.5 t-51.5 78t-18.5 98t18.5 98t51.5 78t79 51.5t100 18.5q55 0 101 -18.5t79 -51.5t51.5 -78t18.5 -98zM143 576q3 19 9.5 38t17.5 33.5t26.5 23.5t38.5 9q18 0 36.5 -7t36.5 -16q18 -8 35 -15.5t32 -7.5q23 0 33.5 15.5t15.5 34.5h43q-3 -20 -9.5 -38.5t-17.5 -33t-27 -23.5 t-38 -9q-18 0 -37 7t-36 16t-34 16t-33 7q-23 0 -33.5 -15.5t-15.5 -34.5h-43z" />
    <glyph glyph-name="odieresis" unicode="&#xf6;" horiz-adv-x="611" 
d="M483 234q0 39 -12.5 73.5t-35.5 60t-56 40.5t-74 15t-73.5 -15t-55.5 -40.5t-35.5 -60t-12.5 -73.5t12.5 -73.5t35.5 -60t55.5 -40t73.5 -14.5t74 14.5t56 40t35.5 60t12.5 73.5zM555 234q0 -53 -18.5 -98t-51.5 -78t-79 -51.5t-101 -18.5q-54 0 -100 18.5t-79 51.5 t-51.5 78t-18.5 98t18.5 98t51.5 78t79 51.5t100 18.5q55 0 101 -18.5t79 -51.5t51.5 -78t18.5 -98zM350 647q0 20 14 35.5t37 15.5t37 -15.5t14 -35.5t-14 -35.5t-37 -15.5t-37 15.5t-14 35.5zM158 647q0 20 14 35.5t37 15.5t37 -15.5t14 -35.5t-14 -35.5t-37 -15.5 t-37 15.5t-14 35.5z" />
    <glyph glyph-name="divide" unicode="&#xf7;" horiz-adv-x="666" 
d="M387 141q0 -21 -15 -37.5t-39 -16.5t-39 16.5t-15 37.5t15 37.5t39 16.5t39 -16.5t15 -37.5zM387 465q0 -21 -15 -37.5t-39 -16.5t-39 16.5t-15 37.5t15 37.5t39 16.5t39 -16.5t15 -37.5zM588 273h-510v60h510v-60z" />
    <glyph glyph-name="oslash" unicode="&#xf8;" horiz-adv-x="611" 
d="M495 397q27 -31 43.5 -72.5t16.5 -90.5q0 -53 -18.5 -98t-52 -78t-79.5 -51.5t-101 -18.5q-48 0 -87.5 14t-69.5 38l-67 -68l-32 31l66 68q-28 32 -43 73.5t-15 89.5q0 53 18.5 98t51.5 78t78.5 51.5t99.5 18.5q47 0 87 -13.5t72 -38.5l66 68l32 -31zM421 385 q-20 20 -50.5 30t-65.5 10q-42 0 -75 -15t-56.5 -41t-36 -60.5t-12.5 -74.5q0 -34 8.5 -65t25.5 -53zM188 82q23 -18 51.5 -28.5t63.5 -10.5q42 0 75.5 15t57.5 40.5t37 60.5t13 75q0 32 -9 63.5t-27 53.5z" />
    <glyph glyph-name="ugrave" unicode="&#xf9;" horiz-adv-x="581" 
d="M430 0q-2 19 -3 42t-1 38h-2q-20 -41 -65 -66.5t-95 -25.5q-89 0 -133.5 53t-44.5 140v287h68v-259q0 -37 6 -67t20.5 -51.5t39 -33.5t61.5 -12q27 0 52.5 11t45.5 33.5t32 57t12 81.5v240h68v-365q0 -19 1 -49t3 -54h-65zM145 708h91l100 -144h-59z" />
    <glyph glyph-name="uacute" unicode="&#xfa;" horiz-adv-x="581" 
d="M430 0q-2 19 -3 42t-1 38h-2q-20 -41 -65 -66.5t-95 -25.5q-89 0 -133.5 53t-44.5 140v287h68v-259q0 -37 6 -67t20.5 -51.5t39 -33.5t61.5 -12q27 0 52.5 11t45.5 33.5t32 57t12 81.5v240h68v-365q0 -19 1 -49t3 -54h-65zM300 564h-59l100 144h91z" />
    <glyph glyph-name="ucircumflex" unicode="&#xfb;" horiz-adv-x="581" 
d="M430 0q-2 19 -3 42t-1 38h-2q-20 -41 -65 -66.5t-95 -25.5q-89 0 -133.5 53t-44.5 140v287h68v-259q0 -37 6 -67t20.5 -51.5t39 -33.5t61.5 -12q27 0 52.5 11t45.5 33.5t32 57t12 81.5v240h68v-365q0 -19 1 -49t3 -54h-65zM438 564h-66l-83 108l-83 -108h-66l109 144h80z " />
    <glyph glyph-name="udieresis" unicode="&#xfc;" horiz-adv-x="581" 
d="M430 0q-2 19 -3 42t-1 38h-2q-20 -41 -65 -66.5t-95 -25.5q-89 0 -133.5 53t-44.5 140v287h68v-259q0 -37 6 -67t20.5 -51.5t39 -33.5t61.5 -12q27 0 52.5 11t45.5 33.5t32 57t12 81.5v240h68v-365q0 -19 1 -49t3 -54h-65zM334 647q0 20 14 35.5t37 15.5t37 -15.5 t14 -35.5t-14 -35.5t-37 -15.5t-37 15.5t-14 35.5zM142 647q0 20 14 35.5t37 15.5t37 -15.5t14 -35.5t-14 -35.5t-37 -15.5t-37 15.5t-14 35.5z" />
    <glyph glyph-name="yacute" unicode="&#xfd;" horiz-adv-x="488" 
d="M251 73h2l145 395h74l-233 -589q-21 -54 -53.5 -86.5t-93.5 -32.5q-31 0 -61 6l7 62q24 -8 50 -8q35 0 55 21.5t35 61.5l38 98l-200 467h76zM267 564h-59l100 144h91z" />
    <glyph glyph-name="thorn" unicode="&#xfe;" horiz-adv-x="633" 
d="M505 234q0 39 -12.5 73t-35.5 59t-55.5 39.5t-73.5 14.5t-73.5 -14.5t-55 -39.5t-35 -59t-12.5 -73t12.5 -73t35 -59t55 -39.5t73.5 -14.5t73.5 14.5t55.5 39.5t35.5 59t12.5 73zM334 -12q-52 0 -98.5 22.5t-75.5 68.5h-2v-319h-66v996h66v-369h2q30 46 76.5 69.5 t97.5 23.5q52 0 96.5 -18.5t77 -51.5t51 -78t18.5 -98t-18.5 -98t-51 -78t-77 -51.5t-96.5 -18.5z" />
    <glyph glyph-name="ydieresis" unicode="&#xff;" horiz-adv-x="488" 
d="M251 73h2l145 395h74l-233 -589q-21 -54 -53.5 -86.5t-93.5 -32.5q-31 0 -61 6l7 62q24 -8 50 -8q35 0 55 21.5t35 61.5l38 98l-200 467h76zM297 647q0 20 14 35.5t37 15.5t37 -15.5t14 -35.5t-14 -35.5t-37 -15.5t-37 15.5t-14 35.5zM105 647q0 20 14 35.5t37 15.5 t37 -15.5t14 -35.5t-14 -35.5t-37 -15.5t-37 15.5t-14 35.5z" />
    <glyph glyph-name="Amacron" unicode="&#x100;" horiz-adv-x="700" 
d="M193 252h312l-156 376zM89 0h-79l306 708h70l304 -708h-80l-78 186h-366zM486 800h-270v54h270v-54z" />
    <glyph glyph-name="amacron" unicode="&#x101;" horiz-adv-x="534" 
d="M365 234q-42 0 -84.5 -3.5t-77 -14t-56.5 -30.5t-22 -53q0 -25 9.5 -42t25.5 -27.5t35.5 -15t39.5 -4.5q36 0 64 12.5t47 34t29 49.5t10 59v35h-20zM385 302q0 61 -32 91t-93 30q-42 0 -78 -15t-61 -40l-38 45q29 29 76.5 48t107.5 19q38 0 71 -10.5t58 -31.5t39 -53 t14 -75v-205q0 -27 2 -56t6 -49h-61q-3 17 -5 37t-2 39h-2q-32 -47 -72.5 -67.5t-97.5 -20.5q-27 0 -55.5 7.5t-52 24.5t-39 44t-15.5 66q0 54 27.5 85.5t73.5 47t105.5 20t123.5 4.5v15zM405 600h-270v54h270v-54z" />
    <glyph glyph-name="Abreve" unicode="&#x102;" horiz-adv-x="700" 
d="M193 252h312l-156 376zM89 0h-79l306 708h70l304 -708h-80l-78 186h-366zM498 908q-4 -63 -44.5 -97.5t-102.5 -34.5t-102.5 34.5t-44.5 97.5h44q7 -39 36 -58.5t67 -19.5t67 19.5t36 58.5h44z" />
    <glyph glyph-name="abreve" unicode="&#x103;" horiz-adv-x="534" 
d="M365 234q-42 0 -84.5 -3.5t-77 -14t-56.5 -30.5t-22 -53q0 -25 9.5 -42t25.5 -27.5t35.5 -15t39.5 -4.5q36 0 64 12.5t47 34t29 49.5t10 59v35h-20zM385 302q0 61 -32 91t-93 30q-42 0 -78 -15t-61 -40l-38 45q29 29 76.5 48t107.5 19q38 0 71 -10.5t58 -31.5t39 -53 t14 -75v-205q0 -27 2 -56t6 -49h-61q-3 17 -5 37t-2 39h-2q-32 -47 -72.5 -67.5t-97.5 -20.5q-27 0 -55.5 7.5t-52 24.5t-39 44t-15.5 66q0 54 27.5 85.5t73.5 47t105.5 20t123.5 4.5v15zM420 708q-4 -63 -44.5 -97.5t-102.5 -34.5t-102.5 34.5t-44.5 97.5h44 q7 -39 36 -58.5t67 -19.5t67 19.5t36 58.5h44z" />
    <glyph glyph-name="Aogonek" unicode="&#x104;" horiz-adv-x="700" 
d="M193 252h312l-156 376zM701 -187q-17 -17 -41 -26.5t-49 -9.5q-18 0 -34 6t-28.5 17.5t-20 27t-7.5 34.5q0 21 8 40.5t21 37t29 33t31 27.5l-78 186h-366l-77 -186h-79l306 708h70l304 -708h-32q-37 -37 -57 -64.5t-20 -56.5q0 -21 15 -34.5t35 -13.5q14 0 27.5 5.5 t23.5 16.5z" />
    <glyph glyph-name="aogonek" unicode="&#x105;" horiz-adv-x="534" 
d="M365 234q-42 0 -84.5 -3.5t-77 -14t-56.5 -30.5t-22 -53q0 -25 9.5 -42t25.5 -27.5t35.5 -15t39.5 -4.5q36 0 64 12.5t47 34t29 49.5t10 59v35h-20zM489 -187q-17 -17 -41 -26.5t-49 -9.5q-18 0 -34 6t-28.5 17.5t-20 27t-7.5 34.5q0 21 8 40.5t21 37t29 33t31 27.5h-2 q-3 17 -5 37t-2 39h-2q-32 -47 -72.5 -67.5t-97.5 -20.5q-27 0 -55.5 7.5t-52 24.5t-39 44t-15.5 66q0 54 27.5 85.5t73.5 47t105.5 20t123.5 4.5v15q0 61 -32 91t-93 30q-42 0 -78 -15t-61 -40l-38 45q29 29 76.5 48t107.5 19q38 0 71 -10.5t58 -31.5t39 -53t14 -75v-205 q0 -27 2 -56t6 -49h-11q-37 -37 -57 -64.5t-20 -56.5q0 -21 15 -34.5t35 -13.5q14 0 27.5 5.5t23.5 16.5z" />
    <glyph glyph-name="Cacute" unicode="&#x106;" horiz-adv-x="720" 
d="M690 114q-18 -27 -43.5 -51t-59 -42t-74 -28.5t-88.5 -10.5q-80 0 -148 28t-117 77.5t-76.5 117.5t-27.5 149t28 149t77.5 117.5t117 77.5t146.5 28q39 0 76.5 -8t70.5 -22.5t60 -35t45 -46.5l-60 -44q-11 17 -29.5 34t-43.5 30t-54.5 21t-63.5 8q-69 0 -123.5 -25 t-92.5 -67.5t-58 -98.5t-20 -118t20.5 -118t58.5 -98.5t92.5 -67.5t122.5 -25q61 0 116 25t92 80zM428 764h-59l100 144h91z" />
    <glyph glyph-name="cacute" unicode="&#x107;" horiz-adv-x="500" 
d="M427 361q-17 27 -49.5 44.5t-70.5 17.5q-41 0 -74 -14.5t-56.5 -40t-36 -60t-12.5 -74.5t12.5 -74t35.5 -59.5t56 -40t74 -14.5q45 0 76 17t51 44l51 -38q-30 -37 -73.5 -59t-104.5 -22q-57 0 -103 18.5t-78.5 51.5t-50.5 78t-18 98t18 98t50.5 78t78.5 51.5t103 18.5 q47 0 95.5 -20.5t78.5 -60.5zM309 564h-59l100 144h91z" />
    <glyph glyph-name="Ccircumflex" unicode="&#x108;" horiz-adv-x="720" 
d="M690 114q-18 -27 -43.5 -51t-59 -42t-74 -28.5t-88.5 -10.5q-80 0 -148 28t-117 77.5t-76.5 117.5t-27.5 149t28 149t77.5 117.5t117 77.5t146.5 28q39 0 76.5 -8t70.5 -22.5t60 -35t45 -46.5l-60 -44q-11 17 -29.5 34t-43.5 30t-54.5 21t-63.5 8q-69 0 -123.5 -25 t-92.5 -67.5t-58 -98.5t-20 -118t20.5 -118t58.5 -98.5t92.5 -67.5t122.5 -25q61 0 116 25t92 80zM573 764h-66l-83 108l-83 -108h-66l109 144h80z" />
    <glyph glyph-name="ccircumflex" unicode="&#x109;" horiz-adv-x="500" 
d="M427 361q-17 27 -49.5 44.5t-70.5 17.5q-41 0 -74 -14.5t-56.5 -40t-36 -60t-12.5 -74.5t12.5 -74t35.5 -59.5t56 -40t74 -14.5q45 0 76 17t51 44l51 -38q-30 -37 -73.5 -59t-104.5 -22q-57 0 -103 18.5t-78.5 51.5t-50.5 78t-18 98t18 98t50.5 78t78.5 51.5t103 18.5 q47 0 95.5 -20.5t78.5 -60.5zM452 564h-66l-83 108l-83 -108h-66l109 144h80z" />
    <glyph glyph-name="Cdotaccent" unicode="&#x10a;" horiz-adv-x="720" 
d="M690 114q-18 -27 -43.5 -51t-59 -42t-74 -28.5t-88.5 -10.5q-80 0 -148 28t-117 77.5t-76.5 117.5t-27.5 149t28 149t77.5 117.5t117 77.5t146.5 28q39 0 76.5 -8t70.5 -22.5t60 -35t45 -46.5l-60 -44q-11 17 -29.5 34t-43.5 30t-54.5 21t-63.5 8q-69 0 -123.5 -25 t-92.5 -67.5t-58 -98.5t-20 -118t20.5 -118t58.5 -98.5t92.5 -67.5t122.5 -25q61 0 116 25t92 80zM463 848q0 -21 -15 -34.5t-33 -13.5t-33 13.5t-15 34.5t15 34.5t33 13.5t33 -13.5t15 -34.5z" />
    <glyph glyph-name="cdotaccent" unicode="&#x10b;" horiz-adv-x="500" 
d="M427 361q-17 27 -49.5 44.5t-70.5 17.5q-41 0 -74 -14.5t-56.5 -40t-36 -60t-12.5 -74.5t12.5 -74t35.5 -59.5t56 -40t74 -14.5q45 0 76 17t51 44l51 -38q-30 -37 -73.5 -59t-104.5 -22q-57 0 -103 18.5t-78.5 51.5t-50.5 78t-18 98t18 98t50.5 78t78.5 51.5t103 18.5 q47 0 95.5 -20.5t78.5 -60.5zM343 648q0 -21 -15 -34.5t-33 -13.5t-33 13.5t-15 34.5t15 34.5t33 13.5t33 -13.5t15 -34.5z" />
    <glyph glyph-name="Ccaron" unicode="&#x10c;" horiz-adv-x="720" 
d="M690 114q-18 -27 -43.5 -51t-59 -42t-74 -28.5t-88.5 -10.5q-80 0 -148 28t-117 77.5t-76.5 117.5t-27.5 149t28 149t77.5 117.5t117 77.5t146.5 28q39 0 76.5 -8t70.5 -22.5t60 -35t45 -46.5l-60 -44q-11 17 -29.5 34t-43.5 30t-54.5 21t-63.5 8q-69 0 -123.5 -25 t-92.5 -67.5t-58 -98.5t-20 -118t20.5 -118t58.5 -98.5t92.5 -67.5t122.5 -25q61 0 116 25t92 80zM463 764h-80l-109 144h66l83 -108l83 108h66z" />
    <glyph glyph-name="ccaron" unicode="&#x10d;" horiz-adv-x="500" 
d="M427 361q-17 27 -49.5 44.5t-70.5 17.5q-41 0 -74 -14.5t-56.5 -40t-36 -60t-12.5 -74.5t12.5 -74t35.5 -59.5t56 -40t74 -14.5q45 0 76 17t51 44l51 -38q-30 -37 -73.5 -59t-104.5 -22q-57 0 -103 18.5t-78.5 51.5t-50.5 78t-18 98t18 98t50.5 78t78.5 51.5t103 18.5 q47 0 95.5 -20.5t78.5 -60.5zM344 564h-80l-109 144h66l83 -108l83 108h66z" />
    <glyph glyph-name="Dcaron" unicode="&#x10e;" horiz-adv-x="757" 
d="M166 64h143q80 0 139.5 25t98.5 65.5t58.5 92.5t19.5 107t-19.5 107t-58.5 92.5t-98.5 65.5t-139.5 25h-143v-580zM94 708h235q66 0 132.5 -22t120 -66.5t86.5 -111t33 -154.5q0 -89 -33 -155t-86.5 -110.5t-120 -66.5t-132.5 -22h-235v708zM387 764h-80l-109 144h66 l83 -108l83 108h66z" />
    <glyph glyph-name="dcaron" unicode="&#x10f;" horiz-adv-x="637" 
d="M128 234q0 -39 12 -73.5t34.5 -60t55.5 -40t75 -14.5q39 0 72 14.5t57 39.5t37.5 59.5t13.5 74.5t-13.5 74.5t-37.5 60t-57 40t-72 14.5q-42 0 -75 -15t-55.5 -40.5t-34.5 -60t-12 -73.5zM475 79q-30 -45 -78 -68t-99 -23q-55 0 -99.5 19t-76 52t-49 78t-17.5 97t17.5 97 t49 78t76 52t99.5 19q51 0 99 -23.5t78 -69.5h2v369h68v-756h-68v79h-2v0zM658 523h-57l62 185h71z" />
    <glyph glyph-name="Dcroat" unicode="&#x110;" horiz-adv-x="757" 
d="M158 66h140q81 0 140.5 24.5t99 65t58.5 92t19 106.5t-19 106.5t-58.5 92t-99 65t-140.5 24.5h-140v-241h258v-54h-258v-281zM86 347h-73v54h73v307h235q66 0 132.5 -22t120 -66.5t86.5 -111t33 -154.5q0 -89 -33 -155t-86.5 -110.5t-120 -66.5t-132.5 -22h-235v347z" />
    <glyph glyph-name="dcroat" unicode="&#x111;" horiz-adv-x="637" 
d="M128 234q0 -39 12 -73.5t34.5 -60t55.5 -40t75 -14.5q39 0 72 14.5t57 39.5t37.5 59.5t13.5 74.5t-13.5 74.5t-37.5 60t-57 40t-72 14.5q-42 0 -75 -15t-55.5 -40.5t-34.5 -60t-12 -73.5zM477 620v136h68v-136h56v-50h-56v-570h-68v79h-2q-30 -45 -78 -68t-99 -23 q-55 0 -99.5 19t-76 52t-49 78t-17.5 97t17.5 97t49 78t76 52t99.5 19q51 0 99 -23.5t78 -69.5h2v183h-156v50h156z" />
    <glyph glyph-name="Emacron" unicode="&#x112;" horiz-adv-x="592" 
d="M166 64h379v-64h-451v708h439v-64h-367v-244h343v-63h-343v-273zM452 800h-270v54h270v-54z" />
    <glyph glyph-name="emacron" unicode="&#x113;" horiz-adv-x="572" 
d="M516 248v-15t-1 -17h-388q1 -35 14 -66t36 -54t54 -36.5t67 -13.5q53 0 91.5 24.5t58.5 56.5l51 -40q-42 -53 -92.5 -76t-108.5 -23q-52 0 -96.5 18.5t-76.5 51.5t-50.5 78t-18.5 98t18 98t50 78t75 51.5t93 18.5q55 0 97 -18.5t70 -50t42.5 -73.5t14.5 -90zM447 270 q-3 66 -42.5 109.5t-112.5 43.5q-34 0 -63 -12.5t-51 -34t-35 -49t-15 -57.5h319zM431 600h-270v54h270v-54z" />
    <glyph glyph-name="Ebreve" unicode="&#x114;" horiz-adv-x="592" 
d="M166 64h379v-64h-451v708h439v-64h-367v-244h343v-63h-343v-273zM463 908q-4 -63 -44.5 -97.5t-102.5 -34.5t-102.5 34.5t-44.5 97.5h44q7 -39 36 -58.5t67 -19.5t67 19.5t36 58.5h44z" />
    <glyph glyph-name="ebreve" unicode="&#x115;" horiz-adv-x="572" 
d="M516 248v-15t-1 -17h-388q1 -35 14 -66t36 -54t54 -36.5t67 -13.5q53 0 91.5 24.5t58.5 56.5l51 -40q-42 -53 -92.5 -76t-108.5 -23q-52 0 -96.5 18.5t-76.5 51.5t-50.5 78t-18.5 98t18 98t50 78t75 51.5t93 18.5q55 0 97 -18.5t70 -50t42.5 -73.5t14.5 -90zM447 270 q-3 66 -42.5 109.5t-112.5 43.5q-34 0 -63 -12.5t-51 -34t-35 -49t-15 -57.5h319zM441 708q-4 -63 -44.5 -97.5t-102.5 -34.5t-102.5 34.5t-44.5 97.5h44q7 -39 36 -58.5t67 -19.5t67 19.5t36 58.5h44z" />
    <glyph glyph-name="Edotaccent" unicode="&#x116;" horiz-adv-x="592" 
d="M166 64h379v-64h-451v708h439v-64h-367v-244h343v-63h-343v-273zM369 848q0 -21 -15 -34.5t-33 -13.5t-33 13.5t-15 34.5t15 34.5t33 13.5t33 -13.5t15 -34.5z" />
    <glyph glyph-name="edotaccent" unicode="&#x117;" horiz-adv-x="572" 
d="M516 248v-15t-1 -17h-388q1 -35 14 -66t36 -54t54 -36.5t67 -13.5q53 0 91.5 24.5t58.5 56.5l51 -40q-42 -53 -92.5 -76t-108.5 -23q-52 0 -96.5 18.5t-76.5 51.5t-50.5 78t-18.5 98t18 98t50 78t75 51.5t93 18.5q55 0 97 -18.5t70 -50t42.5 -73.5t14.5 -90zM447 270 q-3 66 -42.5 109.5t-112.5 43.5q-34 0 -63 -12.5t-51 -34t-35 -49t-15 -57.5h319zM342 648q0 -21 -15 -34.5t-33 -13.5t-33 13.5t-15 34.5t15 34.5t33 13.5t33 -13.5t15 -34.5z" />
    <glyph glyph-name="Eogonek" unicode="&#x118;" horiz-adv-x="592" 
d="M572 -187q-17 -17 -41 -26.5t-49 -9.5q-18 0 -34 6t-28.5 17.5t-20 27t-7.5 34.5q0 21 8 40.5t21 37t29 33t31 27.5h-387v708h439v-64h-367v-244h343v-63h-343v-273h379v-64h-16q-37 -37 -57 -64.5t-20 -56.5q0 -21 15 -34.5t35 -13.5q14 0 27.5 5.5t23.5 16.5z" />
    <glyph glyph-name="eogonek" unicode="&#x119;" horiz-adv-x="572" 
d="M447 270q-3 66 -42.5 109.5t-112.5 43.5q-34 0 -63 -12.5t-51 -34t-35 -49t-15 -57.5h319zM399 -187q-17 -17 -41 -26.5t-49 -9.5q-18 0 -34 6t-28.5 17.5t-20 27t-7.5 34.5q0 38 23 70t51 56q-51 1 -94.5 19.5t-75 51.5t-49.5 77.5t-18 97.5t18 98t50 78t75 51.5 t93 18.5q55 0 97 -18.5t70 -50t42.5 -73.5t14.5 -90v-15t-1 -17h-388q1 -35 14 -66t36 -54t54 -36.5t67 -13.5q53 0 91.5 24.5t58.5 56.5l51 -40q-32 -42 -70 -64t-81 -30q-33 -34 -51 -60t-18 -54q0 -21 15 -34.5t35 -13.5q14 0 27.5 5.5t23.5 16.5z" />
    <glyph glyph-name="Ecaron" unicode="&#x11a;" horiz-adv-x="592" 
d="M166 64h379v-64h-451v708h439v-64h-367v-244h343v-63h-343v-273zM357 764h-80l-109 144h66l83 -108l83 108h66z" />
    <glyph glyph-name="ecaron" unicode="&#x11b;" horiz-adv-x="572" 
d="M516 248v-15t-1 -17h-388q1 -35 14 -66t36 -54t54 -36.5t67 -13.5q53 0 91.5 24.5t58.5 56.5l51 -40q-42 -53 -92.5 -76t-108.5 -23q-52 0 -96.5 18.5t-76.5 51.5t-50.5 78t-18.5 98t18 98t50 78t75 51.5t93 18.5q55 0 97 -18.5t70 -50t42.5 -73.5t14.5 -90zM447 270 q-3 66 -42.5 109.5t-112.5 43.5q-34 0 -63 -12.5t-51 -34t-35 -49t-15 -57.5h319zM334 564h-80l-109 144h66l83 -108l83 108h66z" />
    <glyph glyph-name="Gcircumflex" unicode="&#x11c;" horiz-adv-x="779" 
d="M631 581q-37 39 -88 60.5t-117 21.5q-68 0 -122.5 -25t-92.5 -67.5t-58.5 -98.5t-20.5 -118t20.5 -118t58.5 -98t92.5 -67t122.5 -25q60 0 110 13t81 33v215h-165v63h237v-319q-58 -35 -125 -52t-139 -17q-80 0 -148 28t-117 77.5t-76.5 117.5t-27.5 149t28 149 t77.5 117.5t117 77.5t146.5 28q85 0 148 -25t108 -70zM579 764h-66l-83 108l-83 -108h-66l109 144h80z" />
    <glyph glyph-name="gcircumflex" unicode="&#x11d;" horiz-adv-x="632" 
d="M128 240q0 -37 12 -70t34.5 -58t55.5 -39.5t75 -14.5q39 0 72 13t57 37t37.5 57.5t13.5 74.5q0 37 -13.5 70t-37.5 58t-57 40t-72 15q-42 0 -75 -15t-55.5 -40t-34.5 -58t-12 -70zM115 -94q28 -36 76.5 -61t102.5 -25q50 0 85 14.5t56.5 39.5t31.5 58.5t10 71.5v88h-2 q-27 -44 -76.5 -68t-100.5 -24q-55 0 -99.5 18t-76 49.5t-49 75.5t-17.5 95q0 50 17.5 94t49 77t76 52t99.5 19q51 0 100 -24t77 -69h2v81h68v-464q0 -38 -10.5 -81t-39 -79t-77.5 -60t-127 -24q-65 0 -124 25t-101 69zM457 564h-66l-83 108l-83 -108h-66l109 144h80z" />
    <glyph glyph-name="Gbreve" unicode="&#x11e;" horiz-adv-x="779" 
d="M631 581q-37 39 -88 60.5t-117 21.5q-68 0 -122.5 -25t-92.5 -67.5t-58.5 -98.5t-20.5 -118t20.5 -118t58.5 -98t92.5 -67t122.5 -25q60 0 110 13t81 33v215h-165v63h237v-319q-58 -35 -125 -52t-139 -17q-80 0 -148 28t-117 77.5t-76.5 117.5t-27.5 149t28 149 t77.5 117.5t117 77.5t146.5 28q85 0 148 -25t108 -70zM573 908q-4 -63 -44.5 -97.5t-102.5 -34.5t-102.5 34.5t-44.5 97.5h44q7 -39 36 -58.5t67 -19.5t67 19.5t36 58.5h44z" />
    <glyph glyph-name="gbreve" unicode="&#x11f;" horiz-adv-x="632" 
d="M128 240q0 -37 12 -70t34.5 -58t55.5 -39.5t75 -14.5q39 0 72 13t57 37t37.5 57.5t13.5 74.5q0 37 -13.5 70t-37.5 58t-57 40t-72 15q-42 0 -75 -15t-55.5 -40t-34.5 -58t-12 -70zM115 -94q28 -36 76.5 -61t102.5 -25q50 0 85 14.5t56.5 39.5t31.5 58.5t10 71.5v88h-2 q-27 -44 -76.5 -68t-100.5 -24q-55 0 -99.5 18t-76 49.5t-49 75.5t-17.5 95q0 50 17.5 94t49 77t76 52t99.5 19q51 0 100 -24t77 -69h2v81h68v-464q0 -38 -10.5 -81t-39 -79t-77.5 -60t-127 -24q-65 0 -124 25t-101 69zM457 708q-4 -63 -44.5 -97.5t-102.5 -34.5 t-102.5 34.5t-44.5 97.5h44q7 -39 36 -58.5t67 -19.5t67 19.5t36 58.5h44z" />
    <glyph glyph-name="Gdotaccent" unicode="&#x120;" horiz-adv-x="779" 
d="M631 581q-37 39 -88 60.5t-117 21.5q-68 0 -122.5 -25t-92.5 -67.5t-58.5 -98.5t-20.5 -118t20.5 -118t58.5 -98t92.5 -67t122.5 -25q60 0 110 13t81 33v215h-165v63h237v-319q-58 -35 -125 -52t-139 -17q-80 0 -148 28t-117 77.5t-76.5 117.5t-27.5 149t28 149 t77.5 117.5t117 77.5t146.5 28q85 0 148 -25t108 -70zM473 848q0 -21 -15 -34.5t-33 -13.5t-33 13.5t-15 34.5t15 34.5t33 13.5t33 -13.5t15 -34.5z" />
    <glyph glyph-name="gdotaccent" unicode="&#x121;" horiz-adv-x="632" 
d="M128 240q0 -37 12 -70t34.5 -58t55.5 -39.5t75 -14.5q39 0 72 13t57 37t37.5 57.5t13.5 74.5q0 37 -13.5 70t-37.5 58t-57 40t-72 15q-42 0 -75 -15t-55.5 -40t-34.5 -58t-12 -70zM115 -94q28 -36 76.5 -61t102.5 -25q50 0 85 14.5t56.5 39.5t31.5 58.5t10 71.5v88h-2 q-27 -44 -76.5 -68t-100.5 -24q-55 0 -99.5 18t-76 49.5t-49 75.5t-17.5 95q0 50 17.5 94t49 77t76 52t99.5 19q51 0 100 -24t77 -69h2v81h68v-464q0 -38 -10.5 -81t-39 -79t-77.5 -60t-127 -24q-65 0 -124 25t-101 69zM355 648q0 -21 -15 -34.5t-33 -13.5t-33 13.5 t-15 34.5t15 34.5t33 13.5t33 -13.5t15 -34.5z" />
    <glyph glyph-name="Gcommaaccent" unicode="&#x122;" horiz-adv-x="783" 
d="M631 581q-37 39 -88 60.5t-117 21.5q-68 0 -122.5 -25t-92.5 -67.5t-58.5 -98.5t-20.5 -118t20.5 -118t58.5 -98t92.5 -67t122.5 -25q60 0 110 13t81 33v215h-165v63h237v-319q-58 -35 -125 -52t-139 -17q-80 0 -148 28t-117 77.5t-76.5 117.5t-27.5 149t28 149 t77.5 117.5t117 77.5t146.5 28q85 0 148 -25t108 -70zM400 -230h-57l62 185h71z" />
    <glyph glyph-name="gcommaaccent" unicode="&#x123;" horiz-adv-x="632" 
d="M128 240q0 -37 12 -70t34.5 -58t55.5 -39.5t75 -14.5q39 0 72 13t57 37t37.5 57.5t13.5 74.5q0 37 -13.5 70t-37.5 58t-57 40t-72 15q-42 0 -75 -15t-55.5 -40t-34.5 -58t-12 -70zM115 -94q28 -36 76.5 -61t102.5 -25q50 0 85 14.5t56.5 39.5t31.5 58.5t10 71.5v88h-2 q-27 -44 -76.5 -68t-100.5 -24q-55 0 -99.5 18t-76 49.5t-49 75.5t-17.5 95q0 50 17.5 94t49 77t76 52t99.5 19q51 0 100 -24t77 -69h2v81h68v-464q0 -38 -10.5 -81t-39 -79t-77.5 -60t-127 -24q-65 0 -124 25t-101 69zM357 749h57l-62 -185h-71z" />
    <glyph glyph-name="Hcircumflex" unicode="&#x124;" horiz-adv-x="718" 
d="M94 708h72v-307h386v307h72v-708h-72v335h-386v-335h-72v708zM507 764h-66l-83 108l-83 -108h-66l109 144h80z" />
    <glyph glyph-name="hcircumflex" unicode="&#x125;" horiz-adv-x="583" 
d="M162 391q19 41 63 65t94 24q89 0 133.5 -53t44.5 -140v-287h-68v259q0 37 -6 67t-20.5 51.5t-39 33.5t-61.5 12q-27 0 -52.5 -11t-45.5 -33.5t-32 -57t-12 -81.5v-240h-68v756h68v-365h2zM437 796h-66l-83 108l-83 -108h-66l109 144h80z" />
    <glyph glyph-name="Hbar" unicode="&#x126;" horiz-adv-x="718" 
d="M552 401v99h-386v-99h386zM94 708h72v-158h386v158h72v-708h-72v335h-386v-335h-72v708z" />
    <glyph glyph-name="hbar" unicode="&#x127;" horiz-adv-x="583" 
d="M92 620v136h68v-136h158v-50h-158v-179h2q19 41 63 65t94 24q89 0 133.5 -53t44.5 -140v-287h-68v259q0 37 -6 67t-20.5 51.5t-39 33.5t-61.5 12q-27 0 -52.5 -11t-45.5 -33.5t-32 -57t-12 -81.5v-240h-68v570h-54v50h54z" />
    <glyph glyph-name="Itilde" unicode="&#x128;" horiz-adv-x="260" 
d="M166 0h-72v708h72v-708zM-31 776q3 19 9.5 38t17.5 33.5t26.5 23.5t38.5 9q18 0 36.5 -7t36.5 -16q18 -8 35 -15.5t32 -7.5q23 0 33.5 15.5t15.5 34.5h43q-3 -20 -9.5 -38.5t-17.5 -33t-27 -23.5t-38 -9q-18 0 -37 7t-36 16t-34 16t-33 7q-23 0 -33.5 -15.5t-15.5 -34.5 h-43z" />
    <glyph glyph-name="itilde" unicode="&#x129;" horiz-adv-x="250" 
d="M159 0h-68v468h68v-468zM-35 576q3 19 9.5 38t17.5 33.5t26.5 23.5t38.5 9q18 0 36.5 -7t36.5 -16q18 -8 35 -15.5t32 -7.5q23 0 33.5 15.5t15.5 34.5h43q-3 -20 -9.5 -38.5t-17.5 -33t-27 -23.5t-38 -9q-18 0 -37 7t-36 16t-34 16t-33 7q-23 0 -33.5 -15.5t-15.5 -34.5 h-43z" />
    <glyph glyph-name="Imacron" unicode="&#x12a;" horiz-adv-x="260" 
d="M166 0h-72v708h72v-708zM266 800h-270v54h270v-54z" />
    <glyph glyph-name="imacron" unicode="&#x12b;" horiz-adv-x="250" 
d="M159 0h-68v468h68v-468zM261 600h-270v54h270v-54z" />
    <glyph glyph-name="Iogonek" unicode="&#x12e;" horiz-adv-x="260" 
d="M203 -187q-17 -17 -41 -26.5t-49 -9.5q-18 0 -34 6t-28.5 17.5t-20 27t-7.5 34.5q0 21 8 40.5t21 37t29 33t31 27.5h-18v708h72v-708h-6q-37 -37 -57 -64.5t-20 -56.5q0 -21 15 -34.5t35 -13.5q14 0 27.5 5.5t23.5 16.5z" />
    <glyph glyph-name="iogonek" unicode="&#x12f;" horiz-adv-x="250" 
d="M173 648q0 -21 -15 -34.5t-33 -13.5t-33 13.5t-15 34.5t15 34.5t33 13.5t33 -13.5t15 -34.5zM198 -187q-17 -17 -41 -26.5t-49 -9.5q-18 0 -34 6t-28.5 17.5t-20 27t-7.5 34.5q0 21 8 40.5t21 37t29 33t31 27.5h-16v468h68v-468h-4q-37 -37 -57 -64.5t-20 -56.5 q0 -21 15 -34.5t35 -13.5q14 0 27.5 5.5t23.5 16.5z" />
    <glyph glyph-name="Idotaccent" unicode="&#x130;" horiz-adv-x="260" 
d="M166 0h-72v708h72v-708zM179 848q0 -21 -15 -34.5t-33 -13.5t-33 13.5t-15 34.5t15 34.5t33 13.5t33 -13.5t15 -34.5z" />
    <glyph glyph-name="dotlessi" unicode="&#x131;" horiz-adv-x="250" 
d="M159 0h-68v468h68v-468z" />
    <glyph glyph-name="IJ" unicode="&#x132;" horiz-adv-x="734" 
d="M166 0h-72v708h72v-708zM334 144q8 -42 37.5 -70.5t77.5 -28.5q37 0 61 13.5t38.5 36.5t20 52.5t5.5 61.5v499h72v-504q0 -35 -7.5 -74t-28.5 -72t-58 -54.5t-95 -21.5q-77 0 -127 40.5t-63 103.5z" />
    <glyph glyph-name="ij" unicode="&#x133;" horiz-adv-x="498" 
d="M421 648q0 -21 -15 -34.5t-33 -13.5t-33 13.5t-15 34.5t15 34.5t33 13.5t33 -13.5t15 -34.5zM230 -176q10 -3 21.5 -4.5t21.5 -1.5q21 0 34 7.5t20 20.5t9.5 31.5t2.5 40.5v550h68v-561q0 -28 -6 -54.5t-21 -47t-40.5 -33t-65.5 -12.5q-11 0 -26 1.5t-28 5.5zM173 648 q0 -21 -15 -34.5t-33 -13.5t-33 13.5t-15 34.5t15 34.5t33 13.5t33 -13.5t15 -34.5zM159 0h-68v468h68v-468z" />
    <glyph glyph-name="Jcircumflex" unicode="&#x134;" horiz-adv-x="492" 
d="M92 144q8 -42 37.5 -70.5t77.5 -28.5q37 0 61 13.5t38.5 36.5t20 52.5t5.5 61.5v499h72v-504q0 -35 -7.5 -74t-28.5 -72t-58 -54.5t-95 -21.5q-77 0 -127 40.5t-63 103.5zM516 764h-66l-83 108l-83 -108h-66l109 144h80z" />
    <glyph glyph-name="jcircumflex" unicode="&#x135;" horiz-adv-x="251" 
d="M-17 -176q10 -3 21.5 -4.5t21.5 -1.5q21 0 34 7.5t20 20.5t9.5 31.5t2.5 40.5v550h68v-561q0 -28 -6 -54.5t-21 -47t-40.5 -33t-65.5 -12.5q-11 0 -26 1.5t-28 5.5zM275 564h-66l-83 108l-83 -108h-66l109 144h80z" />
    <glyph glyph-name="Kcommaaccent" unicode="&#x136;" horiz-adv-x="628" 
d="M166 390h1l337 318h103l-357 -321l377 -387h-106l-354 377h-1v-377h-72v708h72v-318zM312 -230h-57l62 185h71z" />
    <glyph glyph-name="kcommaaccent" unicode="&#x137;" horiz-adv-x="510" 
d="M160 257h3l216 211h98l-236 -214l260 -254h-100l-238 246h-3v-246h-68v756h68v-499zM253 -230h-57l62 185h71z" />
    <glyph glyph-name="Lacute" unicode="&#x139;" horiz-adv-x="510" 
d="M166 64h330v-64h-402v708h72v-644zM159 764h-59l100 144h91z" />
    <glyph glyph-name="lacute" unicode="&#x13a;" horiz-adv-x="252" 
d="M160 0h-68v756h68v-756zM153 792h-59l100 144h91z" />
    <glyph glyph-name="Lcommaaccent" unicode="&#x13b;" horiz-adv-x="510" 
d="M166 64h330v-64h-402v708h72v-644zM271 -230h-57l62 185h71z" />
    <glyph glyph-name="lcommaaccent" unicode="&#x13c;" horiz-adv-x="252" 
d="M160 0h-68v756h68v-756zM103 -230h-57l62 185h71z" />
    <glyph glyph-name="Lcaron" unicode="&#x13d;" horiz-adv-x="510" 
d="M166 64h330v-64h-402v708h72v-644zM300 523h-57l62 185h71z" />
    <glyph glyph-name="lcaron" unicode="&#x13e;" horiz-adv-x="252" 
d="M160 0h-68v756h68v-756zM274 523h-57l62 185h71z" />
    <glyph glyph-name="Ldot" unicode="&#x13f;" horiz-adv-x="510" 
d="M166 64h330v-64h-402v708h72v-644zM424 328q0 -21 -15 -34.5t-33 -13.5t-33 13.5t-15 34.5t15 34.5t33 13.5t33 -13.5t15 -34.5z" />
    <glyph glyph-name="ldot" unicode="&#x140;" horiz-adv-x="312" 
d="M160 0h-68v756h68v-756zM328 328q0 -21 -15 -34.5t-33 -13.5t-33 13.5t-15 34.5t15 34.5t33 13.5t33 -13.5t15 -34.5z" />
    <glyph glyph-name="Lslash" unicode="&#x141;" horiz-adv-x="510" 
d="M166 362l216 186v-70l-216 -186v-228h330v-64h-402v242l-82 -70v70l82 70v396h72v-346z" />
    <glyph glyph-name="lslash" unicode="&#x142;" horiz-adv-x="252" 
d="M158 458l81 84v-73l-81 -83v-386h-66v331l-81 -83v73l81 82v353h66v-298z" />
    <glyph glyph-name="Nacute" unicode="&#x143;" horiz-adv-x="764" 
d="M596 105h2v603h72v-708h-90l-412 609h-2v-609h-72v708h90zM403 764h-59l100 144h91z" />
    <glyph glyph-name="nacute" unicode="&#x144;" horiz-adv-x="581" 
d="M151 468q2 -19 3 -42t1 -38h2q20 41 65 66.5t95 25.5q89 0 133.5 -53t44.5 -140v-287h-68v259q0 37 -6 67t-20.5 51.5t-39 33.5t-61.5 12q-27 0 -52.5 -11t-45.5 -33.5t-32 -57t-12 -81.5v-240h-68v365q0 19 -1 49t-3 54h65zM307 564h-59l100 144h91z" />
    <glyph glyph-name="Ncommaaccent" unicode="&#x145;" horiz-adv-x="764" 
d="M596 105h2v603h72v-708h-90l-412 609h-2v-609h-72v708h90zM349 -230h-57l62 185h71z" />
    <glyph glyph-name="ncommaaccent" unicode="&#x146;" horiz-adv-x="581" 
d="M151 468q2 -19 3 -42t1 -38h2q20 41 65 66.5t95 25.5q89 0 133.5 -53t44.5 -140v-287h-68v259q0 37 -6 67t-20.5 51.5t-39 33.5t-61.5 12q-27 0 -52.5 -11t-45.5 -33.5t-32 -57t-12 -81.5v-240h-68v365q0 19 -1 49t-3 54h65zM266 -230h-57l62 185h71z" />
    <glyph glyph-name="Ncaron" unicode="&#x147;" horiz-adv-x="764" 
d="M596 105h2v603h72v-708h-90l-412 609h-2v-609h-72v708h90zM423 764h-80l-109 144h66l83 -108l83 108h66z" />
    <glyph glyph-name="ncaron" unicode="&#x148;" horiz-adv-x="581" 
d="M151 468q2 -19 3 -42t1 -38h2q20 41 65 66.5t95 25.5q89 0 133.5 -53t44.5 -140v-287h-68v259q0 37 -6 67t-20.5 51.5t-39 33.5t-61.5 12q-27 0 -52.5 -11t-45.5 -33.5t-32 -57t-12 -81.5v-240h-68v365q0 19 -1 49t-3 54h65zM333 564h-80l-109 144h66l83 -108l83 108h66z " />
    <glyph glyph-name="napostrophe" unicode="&#x149;" horiz-adv-x="581" 
d="M151 468q2 -19 3 -42t1 -38h2q20 41 65 66.5t95 25.5q89 0 133.5 -53t44.5 -140v-287h-68v259q0 37 -6 67t-20.5 51.5t-39 33.5t-61.5 12q-27 0 -52.5 -11t-45.5 -33.5t-32 -57t-12 -81.5v-240h-68v365q0 19 -1 49t-3 54h65zM30 571h-57l62 185h71z" />
    <glyph glyph-name="Omacron" unicode="&#x14c;" horiz-adv-x="850" 
d="M718 354q0 62 -20 118t-58 98.5t-92.5 67.5t-122.5 25t-122.5 -25t-92.5 -67.5t-58 -98.5t-20 -118t20 -118t58 -98t92.5 -67t122.5 -25t122.5 25t92.5 67t58 98t20 118zM794 354q0 -81 -28 -149t-77.5 -117.5t-117 -77.5t-146.5 -28t-146.5 28t-117 77.5t-77.5 117.5 t-28 149t28 149t77.5 117.5t117 77.5t146.5 28t146.5 -28t117 -77.5t77.5 -117.5t28 -149zM564 800h-270v54h270v-54z" />
    <glyph glyph-name="omacron" unicode="&#x14d;" horiz-adv-x="611" 
d="M483 234q0 39 -12.5 73.5t-35.5 60t-56 40.5t-74 15t-73.5 -15t-55.5 -40.5t-35.5 -60t-12.5 -73.5t12.5 -73.5t35.5 -60t55.5 -40t73.5 -14.5t74 14.5t56 40t35.5 60t12.5 73.5zM555 234q0 -53 -18.5 -98t-51.5 -78t-79 -51.5t-101 -18.5q-54 0 -100 18.5t-79 51.5 t-51.5 78t-18.5 98t18.5 98t51.5 78t79 51.5t100 18.5q55 0 101 -18.5t79 -51.5t51.5 -78t18.5 -98zM442 600h-270v54h270v-54z" />
    <glyph glyph-name="Obreve" unicode="&#x14e;" horiz-adv-x="850" 
d="M718 354q0 62 -20 118t-58 98.5t-92.5 67.5t-122.5 25t-122.5 -25t-92.5 -67.5t-58 -98.5t-20 -118t20 -118t58 -98t92.5 -67t122.5 -25t122.5 25t92.5 67t58 98t20 118zM794 354q0 -81 -28 -149t-77.5 -117.5t-117 -77.5t-146.5 -28t-146.5 28t-117 77.5t-77.5 117.5 t-28 149t28 149t77.5 117.5t117 77.5t146.5 28t146.5 -28t117 -77.5t77.5 -117.5t28 -149zM575 908q-4 -63 -44.5 -97.5t-102.5 -34.5t-102.5 34.5t-44.5 97.5h44q7 -39 36 -58.5t67 -19.5t67 19.5t36 58.5h44z" />
    <glyph glyph-name="obreve" unicode="&#x14f;" horiz-adv-x="611" 
d="M483 234q0 39 -12.5 73.5t-35.5 60t-56 40.5t-74 15t-73.5 -15t-55.5 -40.5t-35.5 -60t-12.5 -73.5t12.5 -73.5t35.5 -60t55.5 -40t73.5 -14.5t74 14.5t56 40t35.5 60t12.5 73.5zM555 234q0 -53 -18.5 -98t-51.5 -78t-79 -51.5t-101 -18.5q-54 0 -100 18.5t-79 51.5 t-51.5 78t-18.5 98t18.5 98t51.5 78t79 51.5t100 18.5q55 0 101 -18.5t79 -51.5t51.5 -78t18.5 -98zM454 708q-4 -63 -44.5 -97.5t-102.5 -34.5t-102.5 34.5t-44.5 97.5h44q7 -39 36 -58.5t67 -19.5t67 19.5t36 58.5h44z" />
    <glyph glyph-name="Ohungarumlaut" unicode="&#x150;" horiz-adv-x="850" 
d="M718 354q0 62 -20 118t-58 98.5t-92.5 67.5t-122.5 25t-122.5 -25t-92.5 -67.5t-58 -98.5t-20 -118t20 -118t58 -98t92.5 -67t122.5 -25t122.5 25t92.5 67t58 98t20 118zM794 354q0 -81 -28 -149t-77.5 -117.5t-117 -77.5t-146.5 -28t-146.5 28t-117 77.5t-77.5 117.5 t-28 149t28 149t77.5 117.5t117 77.5t146.5 28t146.5 -28t117 -77.5t77.5 -117.5t28 -149zM539 764h-59l100 144h91zM368 764h-59l101 144h91z" />
    <glyph glyph-name="ohungarumlaut" unicode="&#x151;" horiz-adv-x="611" 
d="M483 234q0 39 -12.5 73.5t-35.5 60t-56 40.5t-74 15t-73.5 -15t-55.5 -40.5t-35.5 -60t-12.5 -73.5t12.5 -73.5t35.5 -60t55.5 -40t73.5 -14.5t74 14.5t56 40t35.5 60t12.5 73.5zM555 234q0 -53 -18.5 -98t-51.5 -78t-79 -51.5t-101 -18.5q-54 0 -100 18.5t-79 51.5 t-51.5 78t-18.5 98t18.5 98t51.5 78t79 51.5t100 18.5q55 0 101 -18.5t79 -51.5t51.5 -78t18.5 -98zM426 564h-59l100 144h91zM255 564h-59l101 144h91z" />
    <glyph glyph-name="OE" unicode="&#x152;" horiz-adv-x="992" 
d="M463 644q-80 0 -139.5 -25t-98.5 -65.5t-58.5 -92.5t-19.5 -107t19.5 -107t58.5 -92.5t98.5 -65.5t139.5 -25h65v580h-65v0zM933 708v-64h-333v-244h309v-63h-309v-273h345v-64h-502q-66 0 -132.5 22t-120 66.5t-86.5 110.5t-33 155q0 88 33 154.5t86.5 111t120 66.5 t132.5 22h490z" />
    <glyph glyph-name="oe" unicode="&#x153;" horiz-adv-x="994" 
d="M869 270q-3 66 -42.5 109.5t-112.5 43.5q-34 0 -63 -12.5t-51 -34t-35 -49t-15 -57.5h319zM483 234q0 39 -12.5 73.5t-36 60t-56.5 40.5t-74 15t-73.5 -15t-56 -40.5t-36 -60t-12.5 -73.5t12.5 -73.5t36 -60t56 -40t73.5 -14.5t74 14.5t56.5 40t36 60t12.5 73.5zM713 480 q55 0 97.5 -18.5t70.5 -50t42.5 -73.5t14.5 -90v-15t-1 -17h-390q1 -35 14.5 -66t36.5 -54t54.5 -36.5t67.5 -13.5q53 0 91.5 24.5t58.5 56.5l51 -40q-42 -53 -92.5 -76t-109.5 -23q-69 0 -121 30.5t-83 83.5q-32 -53 -85.5 -83.5t-125.5 -30.5q-54 0 -99.5 18.5t-78.5 51.5 t-51.5 78t-18.5 98t18.5 98t51.5 78t78.5 51.5t99.5 18.5q72 0 125 -30.5t85 -83.5q31 53 82 83.5t117 30.5z" />
    <glyph glyph-name="Racute" unicode="&#x154;" horiz-adv-x="599" 
d="M166 393h125q87 0 134 31.5t47 94.5q0 35 -13 59t-36 39t-56 22t-73 7h-128v-253zM166 0h-72v708h208q52 0 96.5 -10t77 -32.5t50.5 -58.5t18 -88q0 -39 -14 -71t-38 -55.5t-57 -37.5t-72 -18l207 -337h-88l-196 331h-120v-331zM290 764h-59l100 144h91z" />
    <glyph glyph-name="racute" unicode="&#x155;" horiz-adv-x="360" 
d="M90 365q0 19 -1 49t-3 54h65q2 -19 3 -42t1 -38h2q20 41 60 66.5t90 25.5q13 0 23.5 -1t21.5 -4l-9 -64q-6 2 -20 4t-28 2q-27 0 -52 -10t-43.5 -31.5t-30 -55t-11.5 -80.5v-240h-68v365v0zM175 564h-59l100 144h91z" />
    <glyph glyph-name="Rcommaaccent" unicode="&#x156;" horiz-adv-x="599" 
d="M166 393h125q87 0 134 31.5t47 94.5q0 35 -13 59t-36 39t-56 22t-73 7h-128v-253zM166 0h-72v708h208q52 0 96.5 -10t77 -32.5t50.5 -58.5t18 -88q0 -39 -14 -71t-38 -55.5t-57 -37.5t-72 -18l207 -337h-88l-196 331h-120v-331zM290 -230h-57l62 185h71z" />
    <glyph glyph-name="rcommaaccent" unicode="&#x157;" horiz-adv-x="360" 
d="M90 365q0 19 -1 49t-3 54h65q2 -19 3 -42t1 -38h2q20 41 60 66.5t90 25.5q13 0 23.5 -1t21.5 -4l-9 -64q-6 2 -20 4t-28 2q-27 0 -52 -10t-43.5 -31.5t-30 -55t-11.5 -80.5v-240h-68v365v0zM100 -230h-57l62 185h71z" />
    <glyph glyph-name="Rcaron" unicode="&#x158;" horiz-adv-x="599" 
d="M166 393h125q87 0 134 31.5t47 94.5q0 35 -13 59t-36 39t-56 22t-73 7h-128v-253zM166 0h-72v708h208q52 0 96.5 -10t77 -32.5t50.5 -58.5t18 -88q0 -39 -14 -71t-38 -55.5t-57 -37.5t-72 -18l207 -337h-88l-196 331h-120v-331zM328 764h-80l-109 144h66l83 -108l83 108 h66z" />
    <glyph glyph-name="rcaron" unicode="&#x159;" horiz-adv-x="360" 
d="M90 365q0 19 -1 49t-3 54h65q2 -19 3 -42t1 -38h2q20 41 60 66.5t90 25.5q13 0 23.5 -1t21.5 -4l-9 -64q-6 2 -20 4t-28 2q-27 0 -52 -10t-43.5 -31.5t-30 -55t-11.5 -80.5v-240h-68v365v0zM255 564h-80l-109 144h66l83 -108l83 108h66z" />
    <glyph glyph-name="Sacute" unicode="&#x15a;" horiz-adv-x="564" 
d="M437 594q-23 32 -59 51.5t-87 19.5q-26 0 -53 -8t-49 -24.5t-35.5 -41.5t-13.5 -59t13 -56t34.5 -37.5t49 -25.5t57.5 -20q37 -12 74.5 -26t67.5 -36.5t49 -57t19 -87.5t-20.5 -91.5t-53 -63.5t-74 -37t-83.5 -12q-32 0 -64 6.5t-61 19.5t-54 33t-44 46l62 46 q23 -38 64.5 -63.5t97.5 -25.5q27 0 55 8.5t50.5 26t37 43t14.5 59.5q0 37 -14.5 61.5t-38.5 41t-55 27.5t-65 22q-35 11 -69 25t-61 36.5t-43.5 55.5t-16.5 81q0 51 20.5 88t53.5 61t73 35t79 11q72 0 123 -25.5t77 -60.5zM302 764h-59l100 144h91z" />
    <glyph glyph-name="sacute" unicode="&#x15b;" horiz-adv-x="444" 
d="M339 357q-15 29 -45.5 47.5t-69.5 18.5q-18 0 -36 -4t-32 -13t-22.5 -23t-8.5 -33q0 -33 27 -50.5t85 -29.5q83 -17 122.5 -49.5t39.5 -87.5q0 -40 -15.5 -67.5t-40.5 -45t-56.5 -25t-63.5 -7.5q-53 0 -103 22t-82 69l54 40q18 -31 53 -52t77 -21q22 0 42 4t35 14 t24 25.5t9 38.5q0 37 -35.5 55.5t-102.5 34.5q-21 5 -44.5 12.5t-43.5 22t-33 36.5t-13 55q0 36 14 61.5t37.5 42t53.5 24.5t62 8q49 0 95 -22t69 -62zM248 564h-59l100 144h91z" />
    <glyph glyph-name="Scircumflex" unicode="&#x15c;" horiz-adv-x="564" 
d="M437 594q-23 32 -59 51.5t-87 19.5q-26 0 -53 -8t-49 -24.5t-35.5 -41.5t-13.5 -59t13 -56t34.5 -37.5t49 -25.5t57.5 -20q37 -12 74.5 -26t67.5 -36.5t49 -57t19 -87.5t-20.5 -91.5t-53 -63.5t-74 -37t-83.5 -12q-32 0 -64 6.5t-61 19.5t-54 33t-44 46l62 46 q23 -38 64.5 -63.5t97.5 -25.5q27 0 55 8.5t50.5 26t37 43t14.5 59.5q0 37 -14.5 61.5t-38.5 41t-55 27.5t-65 22q-35 11 -69 25t-61 36.5t-43.5 55.5t-16.5 81q0 51 20.5 88t53.5 61t73 35t79 11q72 0 123 -25.5t77 -60.5zM442 764h-66l-83 108l-83 -108h-66l109 144h80z " />
    <glyph glyph-name="scircumflex" unicode="&#x15d;" horiz-adv-x="444" 
d="M339 357q-15 29 -45.5 47.5t-69.5 18.5q-18 0 -36 -4t-32 -13t-22.5 -23t-8.5 -33q0 -33 27 -50.5t85 -29.5q83 -17 122.5 -49.5t39.5 -87.5q0 -40 -15.5 -67.5t-40.5 -45t-56.5 -25t-63.5 -7.5q-53 0 -103 22t-82 69l54 40q18 -31 53 -52t77 -21q22 0 42 4t35 14 t24 25.5t9 38.5q0 37 -35.5 55.5t-102.5 34.5q-21 5 -44.5 12.5t-43.5 22t-33 36.5t-13 55q0 36 14 61.5t37.5 42t53.5 24.5t62 8q49 0 95 -22t69 -62zM379 564h-66l-83 108l-83 -108h-66l109 144h80z" />
    <glyph glyph-name="Scedilla" unicode="&#x15e;" horiz-adv-x="564" 
d="M437 594q-23 32 -59 51.5t-87 19.5q-26 0 -53 -8t-49 -24.5t-35.5 -41.5t-13.5 -59t13 -56t34.5 -37.5t49 -25.5t57.5 -20q37 -12 74.5 -26t67.5 -36.5t49 -57t19 -87.5q0 -49 -17.5 -85.5t-46 -61.5t-65.5 -39t-76 -17l-36 -58q13 4 35 4q30 0 56 -18t26 -54 q0 -25 -11 -42t-28 -27t-38 -14t-41 -4t-46.5 5t-47.5 15l16 36q17 -8 35 -11t37 -3q8 0 19 2t21 7.5t17 14t7 20.5q0 20 -14.5 29.5t-39.5 9.5q-22 0 -43 -8l-18 15l51 81q-60 3 -115.5 28.5t-90.5 75.5l62 46q23 -38 64.5 -63.5t97.5 -25.5q27 0 55 8.5t50.5 26t37 43 t14.5 59.5q0 37 -14.5 61.5t-38.5 41t-55 27.5t-65 22q-35 11 -69 25t-61 36.5t-43.5 55.5t-16.5 81q0 51 20.5 88t53.5 61t73 35t79 11q72 0 123 -25.5t77 -60.5z" />
    <glyph glyph-name="scedilla" unicode="&#x15f;" horiz-adv-x="444" 
d="M339 357q-15 29 -45.5 47.5t-69.5 18.5q-18 0 -36 -4t-32 -13t-22.5 -23t-8.5 -33q0 -33 27 -50.5t85 -29.5q83 -17 122.5 -49.5t39.5 -87.5q0 -36 -12.5 -61.5t-33 -42.5t-47 -26.5t-55.5 -12.5l-40 -65q13 4 35 4q30 0 56 -18t26 -54q0 -25 -11 -42t-28 -27t-38 -14 t-41 -4t-46.5 5t-47.5 15l16 36q17 -8 35 -11t37 -3q8 0 19 2t21 7.5t17 14t7 20.5q0 20 -14.5 29.5t-39.5 9.5q-22 0 -43 -8l-18 15l54 87q-49 3 -94 24t-75 66l54 40q18 -31 53 -52t77 -21q22 0 42 4t35 14t24 25.5t9 38.5q0 37 -35.5 55.5t-102.5 34.5q-21 5 -44.5 12.5 t-43.5 22t-33 36.5t-13 55q0 36 14 61.5t37.5 42t53.5 24.5t62 8q49 0 95 -22t69 -62z" />
    <glyph glyph-name="Scaron" unicode="&#x160;" horiz-adv-x="564" 
d="M437 594q-23 32 -59 51.5t-87 19.5q-26 0 -53 -8t-49 -24.5t-35.5 -41.5t-13.5 -59t13 -56t34.5 -37.5t49 -25.5t57.5 -20q37 -12 74.5 -26t67.5 -36.5t49 -57t19 -87.5t-20.5 -91.5t-53 -63.5t-74 -37t-83.5 -12q-32 0 -64 6.5t-61 19.5t-54 33t-44 46l62 46 q23 -38 64.5 -63.5t97.5 -25.5q27 0 55 8.5t50.5 26t37 43t14.5 59.5q0 37 -14.5 61.5t-38.5 41t-55 27.5t-65 22q-35 11 -69 25t-61 36.5t-43.5 55.5t-16.5 81q0 51 20.5 88t53.5 61t73 35t79 11q72 0 123 -25.5t77 -60.5zM326 764h-80l-109 144h66l83 -108l83 108h66z" />
    <glyph glyph-name="scaron" unicode="&#x161;" horiz-adv-x="444" 
d="M339 357q-15 29 -45.5 47.5t-69.5 18.5q-18 0 -36 -4t-32 -13t-22.5 -23t-8.5 -33q0 -33 27 -50.5t85 -29.5q83 -17 122.5 -49.5t39.5 -87.5q0 -40 -15.5 -67.5t-40.5 -45t-56.5 -25t-63.5 -7.5q-53 0 -103 22t-82 69l54 40q18 -31 53 -52t77 -21q22 0 42 4t35 14 t24 25.5t9 38.5q0 37 -35.5 55.5t-102.5 34.5q-21 5 -44.5 12.5t-43.5 22t-33 36.5t-13 55q0 36 14 61.5t37.5 42t53.5 24.5t62 8q49 0 95 -22t69 -62zM270 564h-80l-109 144h66l83 -108l83 108h66z" />
    <glyph glyph-name="Tcommaaccent" unicode="&#x162;" horiz-adv-x="570" 
d="M321 0h-72v644h-237v64h546v-64h-237v-644zM262 -230h-57l62 185h71z" />
    <glyph glyph-name="tcommaaccent" unicode="&#x163;" horiz-adv-x="317" 
d="M301 411h-132v-273q0 -26 5 -43t14.5 -26.5t22.5 -13t28 -3.5q14 0 29.5 4t29.5 11l3 -59q-18 -7 -37.5 -10.5t-42.5 -3.5q-19 0 -40 5t-39 19t-29.5 38t-11.5 63v292h-97v57h97v132h68v-132h132v-57zM174 -230h-57l62 185h71z" />
    <glyph glyph-name="Tcaron" unicode="&#x164;" horiz-adv-x="570" 
d="M321 0h-72v644h-237v64h546v-64h-237v-644zM325 764h-80l-109 144h66l83 -108l83 108h66z" />
    <glyph glyph-name="tcaron" unicode="&#x165;" horiz-adv-x="317" 
d="M301 411h-132v-273q0 -26 5 -43t14.5 -26.5t22.5 -13t28 -3.5q14 0 29.5 4t29.5 11l3 -59q-18 -7 -37.5 -10.5t-42.5 -3.5q-19 0 -40 5t-39 19t-29.5 38t-11.5 63v292h-97v57h97v132h68v-132h132v-57zM282 546h-57l62 185h71z" />
    <glyph glyph-name="Tbar" unicode="&#x166;" horiz-adv-x="570" 
d="M249 543v101h-237v64h546v-64h-237v-101h166v-50h-166v-493h-72v493h-176v50h176z" />
    <glyph glyph-name="tbar" unicode="&#x167;" horiz-adv-x="317" 
d="M101 314v97h-97v57h97v132h68v-132h132v-57h-132v-97h123v-50h-123v-126q0 -26 5 -43t14.5 -26.5t22.5 -13t28 -3.5q14 0 29.5 4t29.5 11l3 -59q-18 -7 -37.5 -10.5t-42.5 -3.5q-19 0 -40 5t-39 19t-29.5 38t-11.5 63v145h-89v50h89z" />
    <glyph glyph-name="Utilde" unicode="&#x168;" horiz-adv-x="710" 
d="M355 -18q-80 0 -131 27.5t-81 69.5t-41.5 91.5t-11.5 93.5v444h72v-436q0 -43 10 -83.5t32.5 -72t59.5 -51t91 -19.5t91 19.5t59.5 51t32.5 72t10 83.5v436h72v-444q0 -44 -11.5 -93.5t-41.5 -91.5t-81.5 -69.5t-130.5 -27.5zM193 776q3 19 9.5 38t17.5 33.5t26.5 23.5 t38.5 9q18 0 36.5 -7t36.5 -16q18 -8 35 -15.5t32 -7.5q23 0 33.5 15.5t15.5 34.5h43q-3 -20 -9.5 -38.5t-17.5 -33t-27 -23.5t-38 -9q-18 0 -37 7t-36 16t-34 16t-33 7q-23 0 -33.5 -15.5t-15.5 -34.5h-43z" />
    <glyph glyph-name="utilde" unicode="&#x169;" horiz-adv-x="581" 
d="M430 0q-2 19 -3 42t-1 38h-2q-20 -41 -65 -66.5t-95 -25.5q-89 0 -133.5 53t-44.5 140v287h68v-259q0 -37 6 -67t20.5 -51.5t39 -33.5t61.5 -12q27 0 52.5 11t45.5 33.5t32 57t12 81.5v240h68v-365q0 -19 1 -49t3 -54h-65zM129 576q3 19 9.5 38t17.5 33.5t26.5 23.5 t38.5 9q18 0 36.5 -7t36.5 -16q18 -8 35 -15.5t32 -7.5q23 0 33.5 15.5t15.5 34.5h43q-3 -20 -9.5 -38.5t-17.5 -33t-27 -23.5t-38 -9q-18 0 -37 7t-36 16t-34 16t-33 7q-23 0 -33.5 -15.5t-15.5 -34.5h-43z" />
    <glyph glyph-name="Umacron" unicode="&#x16a;" horiz-adv-x="710" 
d="M355 -18q-80 0 -131 27.5t-81 69.5t-41.5 91.5t-11.5 93.5v444h72v-436q0 -43 10 -83.5t32.5 -72t59.5 -51t91 -19.5t91 19.5t59.5 51t32.5 72t10 83.5v436h72v-444q0 -44 -11.5 -93.5t-41.5 -91.5t-81.5 -69.5t-130.5 -27.5zM491 800h-270v54h270v-54z" />
    <glyph glyph-name="umacron" unicode="&#x16b;" horiz-adv-x="581" 
d="M430 0q-2 19 -3 42t-1 38h-2q-20 -41 -65 -66.5t-95 -25.5q-89 0 -133.5 53t-44.5 140v287h68v-259q0 -37 6 -67t20.5 -51.5t39 -33.5t61.5 -12q27 0 52.5 11t45.5 33.5t32 57t12 81.5v240h68v-365q0 -19 1 -49t3 -54h-65zM425 600h-270v54h270v-54z" />
    <glyph glyph-name="Ubreve" unicode="&#x16c;" horiz-adv-x="710" 
d="M355 -18q-80 0 -131 27.5t-81 69.5t-41.5 91.5t-11.5 93.5v444h72v-436q0 -43 10 -83.5t32.5 -72t59.5 -51t91 -19.5t91 19.5t59.5 51t32.5 72t10 83.5v436h72v-444q0 -44 -11.5 -93.5t-41.5 -91.5t-81.5 -69.5t-130.5 -27.5zM502 908q-4 -63 -44.5 -97.5t-102.5 -34.5 t-102.5 34.5t-44.5 97.5h44q7 -39 36 -58.5t67 -19.5t67 19.5t36 58.5h44z" />
    <glyph glyph-name="ubreve" unicode="&#x16d;" horiz-adv-x="581" 
d="M430 0q-2 19 -3 42t-1 38h-2q-20 -41 -65 -66.5t-95 -25.5q-89 0 -133.5 53t-44.5 140v287h68v-259q0 -37 6 -67t20.5 -51.5t39 -33.5t61.5 -12q27 0 52.5 11t45.5 33.5t32 57t12 81.5v240h68v-365q0 -19 1 -49t3 -54h-65zM439 708q-4 -63 -44.5 -97.5t-102.5 -34.5 t-102.5 34.5t-44.5 97.5h44q7 -39 36 -58.5t67 -19.5t67 19.5t36 58.5h44z" />
    <glyph glyph-name="Uring" unicode="&#x16e;" horiz-adv-x="710" 
d="M355 -18q-80 0 -131 27.5t-81 69.5t-41.5 91.5t-11.5 93.5v444h72v-436q0 -43 10 -83.5t32.5 -72t59.5 -51t91 -19.5t91 19.5t59.5 51t32.5 72t10 83.5v436h72v-444q0 -44 -11.5 -93.5t-41.5 -91.5t-81.5 -69.5t-130.5 -27.5zM417 850q0 25 -17.5 42t-42.5 17t-42.5 -17 t-17.5 -42t17.5 -42t42.5 -17t42.5 17t17.5 42zM453 850q0 -20 -7.5 -37.5t-21 -30.5t-31 -20t-36.5 -7q-20 0 -37 7t-30.5 20t-21 30.5t-7.5 37.5t7.5 37.5t21 30t30.5 20t37 7.5q19 0 36.5 -7.5t31 -20t21 -30t7.5 -37.5z" />
    <glyph glyph-name="uring" unicode="&#x16f;" horiz-adv-x="581" 
d="M430 0q-2 19 -3 42t-1 38h-2q-20 -41 -65 -66.5t-95 -25.5q-89 0 -133.5 53t-44.5 140v287h68v-259q0 -37 6 -67t20.5 -51.5t39 -33.5t61.5 -12q27 0 52.5 11t45.5 33.5t32 57t12 81.5v240h68v-365q0 -19 1 -49t3 -54h-65zM350 650q0 25 -17.5 42t-42.5 17t-42.5 -17 t-17.5 -42t17.5 -42t42.5 -17t42.5 17t17.5 42zM386 650q0 -20 -7.5 -37.5t-21 -30.5t-31 -20t-36.5 -7q-20 0 -37 7t-30.5 20t-21 30.5t-7.5 37.5t7.5 37.5t21 30t30.5 20t37 7.5q19 0 36.5 -7.5t31 -20t21 -30t7.5 -37.5z" />
    <glyph glyph-name="Uhungarumlaut" unicode="&#x170;" horiz-adv-x="710" 
d="M355 -18q-80 0 -131 27.5t-81 69.5t-41.5 91.5t-11.5 93.5v444h72v-436q0 -43 10 -83.5t32.5 -72t59.5 -51t91 -19.5t91 19.5t59.5 51t32.5 72t10 83.5v436h72v-444q0 -44 -11.5 -93.5t-41.5 -91.5t-81.5 -69.5t-130.5 -27.5zM463 764h-59l100 144h91zM292 764h-59 l101 144h91z" />
    <glyph glyph-name="uhungarumlaut" unicode="&#x171;" horiz-adv-x="581" 
d="M430 0q-2 19 -3 42t-1 38h-2q-20 -41 -65 -66.5t-95 -25.5q-89 0 -133.5 53t-44.5 140v287h68v-259q0 -37 6 -67t20.5 -51.5t39 -33.5t61.5 -12q27 0 52.5 11t45.5 33.5t32 57t12 81.5v240h68v-365q0 -19 1 -49t3 -54h-65zM400 564h-59l100 144h91zM229 564h-59l101 144 h91z" />
    <glyph glyph-name="Uogonek" unicode="&#x172;" horiz-adv-x="710" 
d="M355 -18q-80 0 -131 27.5t-81 69.5t-41.5 91.5t-11.5 93.5v444h72v-436q0 -43 10 -83.5t32.5 -72t59.5 -51t91 -19.5t91 19.5t59.5 51t32.5 72t10 83.5v436h72v-444q0 -40 -9 -84t-32.5 -83.5t-63 -69.5t-99.5 -40q-31 -32 -47.5 -56.5t-16.5 -51.5q0 -21 15 -34.5 t35 -13.5q14 0 27.5 5.5t23.5 16.5l19 -40q-17 -17 -41 -26.5t-49 -9.5q-18 0 -34 6t-28.5 17.5t-20 27t-7.5 34.5q0 35 21 66t47 54h-5v0z" />
    <glyph glyph-name="uogonek" unicode="&#x173;" horiz-adv-x="581" 
d="M522 -187q-17 -17 -41 -26.5t-49 -9.5q-18 0 -34 6t-28.5 17.5t-20 27t-7.5 34.5q0 21 8 40.5t21 37t29 33t31 27.5h-1q-2 19 -3 42t-1 38h-2q-20 -41 -65 -66.5t-95 -25.5q-89 0 -133.5 53t-44.5 140v287h68v-259q0 -37 6 -67t20.5 -51.5t39 -33.5t61.5 -12 q27 0 52.5 11t45.5 33.5t32 57t12 81.5v240h68v-365q0 -19 1 -49t3 -54h-16q-37 -37 -57 -64.5t-20 -56.5q0 -21 15 -34.5t35 -13.5q14 0 27.5 5.5t23.5 16.5z" />
    <glyph glyph-name="Wcircumflex" unicode="&#x174;" horiz-adv-x="972" 
d="M265 99h2l177 609h86l177 -609h2l173 609h76l-209 -708h-84l-178 608h-2l-178 -608h-84l-209 708h76zM635 764h-66l-83 108l-83 -108h-66l109 144h80z" />
    <glyph glyph-name="wcircumflex" unicode="&#x175;" horiz-adv-x="746" 
d="M99 468l113 -380h2l126 380h66l128 -380h2l112 380h72l-148 -468h-74l-125 379h-2l-123 -379h-74l-148 468h73zM521 564h-66l-83 108l-83 -108h-66l109 144h80z" />
    <glyph glyph-name="Ycircumflex" unicode="&#x176;" horiz-adv-x="602" 
d="M337 0h-72v305l-265 403h90l213 -343l215 343h84l-265 -403v-305zM452 764h-66l-83 108l-83 -108h-66l109 144h80z" />
    <glyph glyph-name="ycircumflex" unicode="&#x177;" horiz-adv-x="488" 
d="M251 73h2l145 395h74l-233 -589q-21 -54 -53.5 -86.5t-93.5 -32.5q-31 0 -61 6l7 62q24 -8 50 -8q35 0 55 21.5t35 61.5l38 98l-200 467h76zM401 564h-66l-83 108l-83 -108h-66l109 144h80z" />
    <glyph glyph-name="Ydieresis" unicode="&#x178;" horiz-adv-x="602" 
d="M337 0h-72v305l-265 403h90l213 -343l215 343h84l-265 -403v-305zM348 847q0 20 14 35.5t37 15.5t37 -15.5t14 -35.5t-14 -35.5t-37 -15.5t-37 15.5t-14 35.5zM156 847q0 20 14 35.5t37 15.5t37 -15.5t14 -35.5t-14 -35.5t-37 -15.5t-37 15.5t-14 35.5z" />
    <glyph glyph-name="Zacute" unicode="&#x179;" horiz-adv-x="572" 
d="M535 648l-413 -584h419v-64h-510v60l414 584h-403v64h493v-60zM299 764h-59l100 144h91z" />
    <glyph glyph-name="zacute" unicode="&#x17a;" horiz-adv-x="442" 
d="M401 420l-280 -361h290v-59h-380v48l279 363h-265v57h356v-48zM241 564h-59l100 144h91z" />
    <glyph glyph-name="Zdotaccent" unicode="&#x17b;" horiz-adv-x="572" 
d="M535 648l-413 -584h419v-64h-510v60l414 584h-403v64h493v-60zM333 848q0 -21 -15 -34.5t-33 -13.5t-33 13.5t-15 34.5t15 34.5t33 13.5t33 -13.5t15 -34.5z" />
    <glyph glyph-name="zdotaccent" unicode="&#x17c;" horiz-adv-x="442" 
d="M401 420l-280 -361h290v-59h-380v48l279 363h-265v57h356v-48zM270 648q0 -21 -15 -34.5t-33 -13.5t-33 13.5t-15 34.5t15 34.5t33 13.5t33 -13.5t15 -34.5z" />
    <glyph glyph-name="Zcaron" unicode="&#x17d;" horiz-adv-x="572" 
d="M535 648l-413 -584h419v-64h-510v60l414 584h-403v64h493v-60zM327 764h-80l-109 144h66l83 -108l83 108h66z" />
    <glyph glyph-name="zcaron" unicode="&#x17e;" horiz-adv-x="442" 
d="M401 420l-280 -361h290v-59h-380v48l279 363h-265v57h356v-48zM265 564h-80l-109 144h66l83 -108l83 108h66z" />
    <glyph glyph-name="florin" unicode="&#x192;" horiz-adv-x="580" 
d="M442 365h-119l-67 -352q-5 -27 -15 -54t-27.5 -49t-45 -35.5t-67.5 -13.5q-22 0 -41 3.5t-37 14.5l27 55q24 -13 53 -13q23 0 38 9.5t24.5 24.5t15 34t8.5 38l63 338h-108v54h119l27 144q6 31 16 59t28 50t44 35t64 13q26 0 50.5 -7.5t44.5 -21.5l-34 -48q-13 9 -27.5 13 t-29.5 4q-25 0 -41 -12t-26 -30t-15 -38t-8 -36l-22 -125h108v-54z" />
    <glyph glyph-name="Scommaaccent" unicode="&#x218;" horiz-adv-x="564" 
d="M437 594q-23 32 -59 51.5t-87 19.5q-26 0 -53 -8t-49 -24.5t-35.5 -41.5t-13.5 -59t13 -56t34.5 -37.5t49 -25.5t57.5 -20q37 -12 74.5 -26t67.5 -36.5t49 -57t19 -87.5t-20.5 -91.5t-53 -63.5t-74 -37t-83.5 -12q-32 0 -64 6.5t-61 19.5t-54 33t-44 46l62 46 q23 -38 64.5 -63.5t97.5 -25.5q27 0 55 8.5t50.5 26t37 43t14.5 59.5q0 37 -14.5 61.5t-38.5 41t-55 27.5t-65 22q-35 11 -69 25t-61 36.5t-43.5 55.5t-16.5 81q0 51 20.5 88t53.5 61t73 35t79 11q72 0 123 -25.5t77 -60.5zM262 -230h-57l62 185h71z" />
    <glyph glyph-name="scommaaccent" unicode="&#x219;" horiz-adv-x="444" 
d="M339 357q-15 29 -45.5 47.5t-69.5 18.5q-18 0 -36 -4t-32 -13t-22.5 -23t-8.5 -33q0 -33 27 -50.5t85 -29.5q83 -17 122.5 -49.5t39.5 -87.5q0 -40 -15.5 -67.5t-40.5 -45t-56.5 -25t-63.5 -7.5q-53 0 -103 22t-82 69l54 40q18 -31 53 -52t77 -21q22 0 42 4t35 14 t24 25.5t9 38.5q0 37 -35.5 55.5t-102.5 34.5q-21 5 -44.5 12.5t-43.5 22t-33 36.5t-13 55q0 36 14 61.5t37.5 42t53.5 24.5t62 8q49 0 95 -22t69 -62zM197 -230h-57l62 185h71z" />
    <glyph glyph-name="uni021A" unicode="&#x21a;" horiz-adv-x="570" 
d="M321 0h-72v644h-237v64h546v-64h-237v-644zM262 -230h-57l62 185h71z" />
    <glyph glyph-name="uni021B" unicode="&#x21b;" horiz-adv-x="317" 
d="M301 411h-132v-273q0 -26 5 -43t14.5 -26.5t22.5 -13t28 -3.5q14 0 29.5 4t29.5 11l3 -59q-18 -7 -37.5 -10.5t-42.5 -3.5q-19 0 -40 5t-39 19t-29.5 38t-11.5 63v292h-97v57h97v132h68v-132h132v-57zM174 -230h-57l62 185h71z" />
    <glyph glyph-name="dotlessj" unicode="&#x237;" horiz-adv-x="251" 
d="M-17 -176q10 -3 21.5 -4.5t21.5 -1.5q21 0 34 7.5t20 20.5t9.5 31.5t2.5 40.5v550h68v-561q0 -28 -6 -54.5t-21 -47t-40.5 -33t-65.5 -12.5q-11 0 -26 1.5t-28 5.5z" />
    <glyph glyph-name="circumflex" unicode="&#x2c6;" 
d="M269 564h-66l-83 108l-83 -108h-66l109 144h80z" />
    <glyph glyph-name="caron" unicode="&#x2c7;" 
d="M160 564h-80l-109 144h66l83 -108l83 108h66z" />
    <glyph glyph-name="uni02C9" unicode="&#x2c9;" 
d="M255 800h-270v54h270v-54z" />
    <glyph glyph-name="breve" unicode="&#x2d8;" 
d="M267 708q-4 -63 -44.5 -97.5t-102.5 -34.5t-102.5 34.5t-44.5 97.5h44q7 -39 36 -58.5t67 -19.5t67 19.5t36 58.5h44z" />
    <glyph glyph-name="dotaccent" unicode="&#x2d9;" 
d="M168 648q0 -21 -15 -34.5t-33 -13.5t-33 13.5t-15 34.5t15 34.5t33 13.5t33 -13.5t15 -34.5z" />
    <glyph glyph-name="ring" unicode="&#x2da;" 
d="M180 650q0 25 -17.5 42t-42.5 17t-42.5 -17t-17.5 -42t17.5 -42t42.5 -17t42.5 17t17.5 42zM216 650q0 -20 -7.5 -37.5t-21 -30.5t-31 -20t-36.5 -7q-20 0 -37 7t-30.5 20t-21 30.5t-7.5 37.5t7.5 37.5t21 30t30.5 20t37 7.5q19 0 36.5 -7.5t31 -20t21 -30t7.5 -37.5z " />
    <glyph glyph-name="ogonek" unicode="&#x2db;" 
d="M210 -187q-17 -17 -41 -26.5t-49 -9.5q-18 0 -34 6t-28.5 17.5t-20 27t-7.5 34.5q0 21 8 40.5t21 37t29 33t31 27.5h48q-37 -37 -57 -64.5t-20 -56.5q0 -21 15 -34.5t35 -13.5q14 0 27.5 5.5t23.5 16.5z" />
    <glyph glyph-name="tilde" unicode="&#x2dc;" 
d="M-42 576q3 19 9.5 38t17.5 33.5t26.5 23.5t38.5 9q18 0 36.5 -7t36.5 -16q18 -8 35 -15.5t32 -7.5q23 0 33.5 15.5t15.5 34.5h43q-3 -20 -9.5 -38.5t-17.5 -33t-27 -23.5t-38 -9q-18 0 -37 7t-36 16t-34 16t-33 7q-23 0 -33.5 -15.5t-15.5 -34.5h-43z" />
    <glyph glyph-name="hungarumlaut" unicode="&#x2dd;" 
d="M169 564h-59l100 144h91zM-2 564h-59l101 144h91z" />
    <glyph glyph-name="uni0394" unicode="&#x394;" horiz-adv-x="670" 
d="M332 645l-226 -583h455zM15 0l281 712h74l287 -712h-642z" />
    <glyph glyph-name="uni03A9" unicode="&#x3a9;" horiz-adv-x="744" 
d="M434 0v181q45 8 79.5 28.5t58 51.5t35 70t11.5 84q0 54 -19.5 99t-53.5 77.5t-80 50.5t-99 18t-99 -18.5t-80 -51t-53.5 -77.5t-19.5 -98q0 -44 11.5 -83.5t35 -70.5t58 -52t79.5 -28v-181h-251v58h197v82q-47 13 -83.5 40t-62 63.5t-38.5 80.5t-13 92q0 67 25.5 123 t69.5 96.5t102 63t123 22.5t122.5 -22.5t101 -63t69 -96.5t25.5 -122q0 -48 -13 -92.5t-38 -81t-61.5 -63.5t-84.5 -40v-82h197v-58h-251z" />
    <glyph glyph-name="uni03BC" unicode="&#x3bc;" horiz-adv-x="556" 
d="M72 468h66v-259q0 -86 27.5 -123.5t99.5 -37.5q30 0 56 12t45 35t30 56.5t11 76.5v240h66v-365q0 -26 1.5 -51.5t3.5 -51.5h-71v76h-2q-11 -18 -28 -34t-38 -28t-44.5 -19t-46.5 -7q-69 0 -110 29v-245h-66v696z" />
    <glyph glyph-name="pi" unicode="&#x3c0;" horiz-adv-x="563" 
d="M530 11q-17 -8 -31.5 -12.5t-32.5 -4.5q-29 0 -45.5 9.5t-24 26t-9 37.5t-1.5 44v298h-220v-409h-64v409h-70v59h494v-59h-76v-305q0 -22 5.5 -38t32.5 -16q20 0 42 10v-49v0z" />
    <glyph glyph-name="endash" unicode="&#x2013;" horiz-adv-x="400" 
d="M370 214h-340v57h340v-57z" />
    <glyph glyph-name="emdash" unicode="&#x2014;" horiz-adv-x="600" 
d="M570 214h-540v57h540v-57z" />
    <glyph glyph-name="quoteleft" unicode="&#x2018;" horiz-adv-x="222" 
d="M123 708h57l-67 -235h-71z" />
    <glyph glyph-name="quoteright" unicode="&#x2019;" horiz-adv-x="222" 
d="M99 473h-57l67 235h71z" />
    <glyph glyph-name="quotesinglbase" unicode="&#x201a;" horiz-adv-x="222" 
d="M99 -140h-57l67 235h71z" />
    <glyph glyph-name="quotedblleft" unicode="&#x201c;" horiz-adv-x="387" 
d="M288 708h57l-67 -235h-71zM123 708h57l-67 -235h-71z" />
    <glyph glyph-name="quotedblright" unicode="&#x201d;" horiz-adv-x="387" 
d="M99 473h-57l67 235h71zM264 473h-57l67 235h71z" />
    <glyph glyph-name="quotedblbase" unicode="&#x201e;" horiz-adv-x="387" 
d="M99 -140h-57l67 235h71zM264 -140h-57l67 235h71z" />
    <glyph glyph-name="dagger" unicode="&#x2020;" horiz-adv-x="556" 
d="M311 504h204v-60h-204v-570h-66v570h-204v60h204v204h66v-204z" />
    <glyph glyph-name="daggerdbl" unicode="&#x2021;" horiz-adv-x="556" 
d="M311 516h195v-60h-195v-330h195v-60h-195v-192h-66v192h-195v60h195v330h-195v60h195v192h66v-192z" />
    <glyph glyph-name="bullet" unicode="&#x2022;" horiz-adv-x="500" 
d="M73 354q0 37 14 69t38 56t56 38t69 14t69 -14t56 -38t38 -56t14 -69t-14 -69t-38 -56t-56 -38t-69 -14t-69 14t-56 38t-38 56t-14 69z" />
    <glyph glyph-name="ellipsis" unicode="&#x2026;" horiz-adv-x="1000" 
d="M887 48q0 -21 -15 -37.5t-39 -16.5t-39 16.5t-15 37.5t15 37.5t39 16.5t39 -16.5t15 -37.5zM554 48q0 -21 -15 -37.5t-39 -16.5t-39 16.5t-15 37.5t15 37.5t39 16.5t39 -16.5t15 -37.5zM221 48q0 -21 -15 -37.5t-39 -16.5t-39 16.5t-15 37.5t15 37.5t39 16.5t39 -16.5 t15 -37.5z" />
    <glyph glyph-name="perthousand" unicode="&#x2030;" horiz-adv-x="1000" 
d="M125 -31l-52 27l451 743l51 -27zM921 142q0 42 -28.5 71t-70.5 29t-70.5 -29t-28.5 -71t28.5 -71t70.5 -29t70.5 29t28.5 71zM975 142q0 -32 -12 -60t-32.5 -49t-48.5 -33t-60 -12t-60 12t-48.5 33t-32.5 49t-12 60q0 31 12 59t32.5 49t48.5 33.5t60 12.5t60 -12.5 t48.5 -33.5t32.5 -49t12 -59zM571 142q0 42 -28.5 71t-70.5 29t-70.5 -29t-28.5 -71t28.5 -71t70.5 -29t70.5 29t28.5 71zM625 142q0 -32 -12 -60t-32.5 -49t-48.5 -33t-60 -12t-60 12t-48.5 33t-32.5 49t-12 60q0 31 12 59t32.5 49t48.5 33.5t60 12.5t60 -12.5t48.5 -33.5 t32.5 -49t12 -59zM277 566q0 42 -28.5 71t-70.5 29t-70.5 -29t-28.5 -71t28.5 -71t70.5 -29t70.5 29t28.5 71zM331 566q0 -32 -12 -60t-32.5 -49t-48.5 -33t-60 -12t-60 12t-48.5 33t-32.5 49t-12 60q0 31 12 59t32.5 49t48.5 33.5t60 12.5t60 -12.5t48.5 -33.5t32.5 -49 t12 -59z" />
    <glyph glyph-name="guilsinglleft" unicode="&#x2039;" horiz-adv-x="315" 
d="M246 64l-47 -33l-140 209l140 209l47 -33l-115 -176z" />
    <glyph glyph-name="guilsinglright" unicode="&#x203a;" horiz-adv-x="315" 
d="M69 416l47 33l140 -209l-140 -209l-47 33l115 176z" />
    <glyph glyph-name="fraction" unicode="&#x2044;" horiz-adv-x="100" 
d="M-153 -31l-52 27l451 743l51 -27z" />
    <glyph glyph-name="Euro" unicode="&#x20ac;" horiz-adv-x="580" 
d="M511 633q-51 30 -127 30q-87 0 -143.5 -52t-77.5 -142h300l-18 -55h-291q-2 -15 -3.5 -31.5t-1.5 -33.5q0 -12 1 -28.5t3 -28.5h256l-18 -55h-231q8 -44 28 -79t49.5 -60.5t67 -39t79.5 -13.5q39 0 72.5 9.5t63.5 30.5l29 -56q-67 -47 -174 -47q-60 0 -109.5 21.5t-86 57 t-59.5 81.5t-32 95h-76l20 55h49q-1 10 -2 26t-1 30q0 17 1 35.5t3 30.5h-69l20 55h57q14 61 41.5 109t66.5 81t87 50t102 17q42 0 81 -8.5t68 -23.5l-25 -61v0z" />
    <glyph glyph-name="afii61289" unicode="&#x2113;" horiz-adv-x="500" 
d="M340 588q0 38 -15 61.5t-38 23.5t-42 -28t-19 -88v-222q56 65 85 130.5t29 122.5zM415 41q-59 -55 -130 -55q-55 0 -91 31.5t-36 96.5v114l-58 -62h-2l-26 37l86 84v259q0 42 10 74.5t27.5 55t41 34t50.5 11.5q48 0 79 -34t31 -94q0 -74 -43.5 -153t-127.5 -165v-150 q0 -26 7 -43t18 -26.5t24 -13.5t26 -4q20 0 42.5 9t45.5 29h2l24 -35v0z" />
    <glyph glyph-name="trademark" unicode="&#x2122;" horiz-adv-x="1000" 
d="M928 296h-60v346h-2l-139 -346h-39l-139 346h-2v-346h-60v412h93l129 -316l129 316h90v-412zM401 654h-133v-358h-60v358h-136v54h329v-54z" />
    <glyph glyph-name="Omega" unicode="&#x2126;" horiz-adv-x="744" 
d="M434 0v181q45 8 79.5 28.5t58 51.5t35 70t11.5 84q0 54 -19.5 99t-53.5 77.5t-80 50.5t-99 18t-99 -18.5t-80 -51t-53.5 -77.5t-19.5 -98q0 -44 11.5 -83.5t35 -70.5t58 -52t79.5 -28v-181h-251v58h197v82q-47 13 -83.5 40t-62 63.5t-38.5 80.5t-13 92q0 67 25.5 123 t69.5 96.5t102 63t123 22.5t122.5 -22.5t101 -63t69 -96.5t25.5 -122q0 -48 -13 -92.5t-38 -81t-61.5 -63.5t-84.5 -40v-82h197v-58h-251z" />
    <glyph glyph-name="estimated" unicode="&#x212e;" horiz-adv-x="800" 
d="M210 355v-240q76 -78 192 -78q83 0 144 37.5t112 121.5l46 -28q-30 -48 -61.5 -82t-67.5 -55.5t-78.5 -32t-94.5 -10.5q-78 0 -141 28.5t-108 78.5t-69 116.5t-24 143.5t24 143.5t69 116t108 77.5t141 28q76 0 139.5 -27t108.5 -75.5t70 -115.5t25 -147h-535zM595 402 v193q-82 79 -194 79t-191 -79v-193h385z" />
    <glyph glyph-name="partialdiff" unicode="&#x2202;" horiz-adv-x="496" 
d="M386 278q-27 36 -67 63.5t-88 27.5q-34 0 -59.5 -13t-43 -35t-26 -51t-8.5 -60q0 -30 8.5 -60t26 -54.5t43 -39.5t59.5 -15q43 0 72 24t47 60t26 77.5t10 75.5zM455 363q0 -55 -8 -120.5t-32 -122t-68.5 -94.5t-116.5 -38q-47 0 -84 18.5t-62.5 49.5t-39 71.5t-13.5 84.5 q0 43 13 82t38 68t61 46t82 17q49 0 92 -23t74 -61q0 13 .5 26t0.5 26q0 42 -8.5 89.5t-29 88.5t-55 68t-86.5 27q-35 0 -60.5 -13t-51.5 -33l-36 43q32 28 67 43t78 15q48 0 85 -15.5t64 -42.5t45.5 -62.5t29.5 -75.5t16 -81.5t5 -80.5z" />
    <glyph glyph-name="Delta" unicode="&#x2206;" horiz-adv-x="670" 
d="M332 645l-226 -583h455zM15 0l281 712h74l287 -712h-642z" />
    <glyph glyph-name="product" unicode="&#x220f;" horiz-adv-x="711" 
d="M575 -214v938h-438v-938h-66v1000h570v-1000h-66z" />
    <glyph glyph-name="summation" unicode="&#x2211;" horiz-adv-x="604" 
d="M25 -214v55l329 448l-315 441v56h527v-62h-442l309 -435l-328 -442h473v-61h-553z" />
    <glyph glyph-name="minus" unicode="&#x2212;" horiz-adv-x="666" 
d="M588 273h-510v60h510v-60z" />
    <glyph glyph-name="uni2215" unicode="&#x2215;" horiz-adv-x="100" 
d="M-153 -31l-52 27l451 743l51 -27z" />
    <glyph glyph-name="uni2219" unicode="&#x2219;" horiz-adv-x="260" 
d="M184 314q0 -21 -15 -37.5t-39 -16.5t-39 16.5t-15 37.5t15 37.5t39 16.5t39 -16.5t15 -37.5z" />
    <glyph glyph-name="radical" unicode="&#x221a;" horiz-adv-x="493" 
d="M292 -214h-66l-164 340l-46 -22l-24 50l100 48l158 -332l189 916h63z" />
    <glyph glyph-name="infinity" unicode="&#x221e;" horiz-adv-x="741" 
d="M333 249q-15 13 -33 28.5t-38.5 29.5t-41.5 23.5t-42 9.5q-19 0 -34 -7.5t-25 -20t-15.5 -28.5t-5.5 -34q0 -38 22 -63t62 -25q20 0 41 8.5t41 21.5t37.5 28.5t31.5 28.5zM643 249q0 38 -21 65t-62 27q-21 0 -41.5 -9.5t-40 -23.5t-37 -30.5t-32.5 -29.5q16 -14 33.5 -29 t37 -28t40 -21t43.5 -8q38 0 59 25t21 62zM700 252q0 -31 -10 -58t-28 -47t-44 -31.5t-58 -11.5q-29 0 -55 9.5t-49 25t-44.5 34.5t-40.5 38q-22 -18 -43 -37t-43.5 -34.5t-48 -25.5t-55.5 -10q-32 0 -57.5 11t-44 30.5t-28.5 46t-10 57.5q0 30 9.5 57t27.5 47.5t43.5 32 t57.5 11.5q29 0 55.5 -10.5t50 -27t45 -36t41.5 -38.5q20 19 40.5 39t43 36.5t48 27t55.5 10.5q32 0 58 -11t45 -30.5t29 -46.5t10 -58z" />
    <glyph glyph-name="integral" unicode="&#x222b;" horiz-adv-x="543" 
d="M406 736q0 -17 -10.5 -25.5t-26.5 -8.5q-14 0 -21 6t-11.5 13.5t-8.5 14t-11 6.5q-12 0 -19 -13t-10.5 -32.5t-5 -42.5t-1 -44.5t1 -37.5t0.5 -21v-504q0 -32 -1 -76.5t-12 -85.5t-36 -69.5t-73 -28.5q-21 0 -40.5 11t-19.5 36q0 14 9.5 23t23.5 9q13 0 20 -6t11.5 -13 t8.5 -13t10 -6q13 0 20 22.5t9.5 51t2.5 54v31.5l1 21v495q0 23 -1 53t0.5 61.5t7 61.5t19 54t36 38.5t57.5 14.5q11 0 23.5 -2.5t23 -8.5t17 -15.5t6.5 -23.5z" />
    <glyph glyph-name="approxequal" unicode="&#x2248;" horiz-adv-x="666" 
d="M596 232q-3 -26 -11.5 -51t-23.5 -44.5t-37 -31t-52 -11.5q-32 0 -69.5 11.5t-74.5 25.5t-71.5 25t-61.5 11q-34 0 -54 -24.5t-25 -55.5h-45q4 26 12 51t22.5 45t36.5 32t52 12q33 0 69.5 -11t74.5 -25q37 -14 72 -25.5t64 -11.5q35 0 53 23t25 55h44v0zM596 402 q-3 -26 -11.5 -51t-23.5 -44t-36.5 -30.5t-51.5 -11.5q-32 0 -69.5 11.5t-75.5 25.5q-37 14 -71.5 25t-61.5 11q-34 0 -54 -24.5t-25 -55.5h-45q3 26 11.5 51t23.5 44.5t37 31.5t52 12q33 0 69.5 -11t73.5 -25q38 -14 72.5 -25.5t63.5 -11.5q36 0 54 23t25 55h43v0z" />
    <glyph glyph-name="notequal" unicode="&#x2260;" horiz-adv-x="666" 
d="M297 120l-76 -144l-52 27l62 117h-149v60h181l68 130h-249v60h282l77 147l52 -28l-63 -119h154v-60h-186l-69 -130h255v-60h-287z" />
    <glyph glyph-name="lessequal" unicode="&#x2264;" horiz-adv-x="666" 
d="M82 6v59h502v-59h-502zM82 296v65l502 189v-65l-419 -157l419 -155v-65z" />
    <glyph glyph-name="greaterequal" unicode="&#x2265;" horiz-adv-x="666" 
d="M82 6v59h502v-59h-502zM82 108v65l420 155l-420 157v65l502 -189v-65z" />
    <glyph glyph-name="lozenge" unicode="&#x25ca;" horiz-adv-x="593" 
d="M296 681l-136 -325l136 -325l137 325zM327 -35h-63l-169 391l169 391h63l171 -391z" />
    <glyph glyph-name="commaaccent" unicode="&#xf6c3;" 
d="M105 -230h-57l62 185h71z" />
    <glyph glyph-name="uniF8FF" unicode="&#xf8ff;" horiz-adv-x="512" 
d="M512 718v-718h-512v718h512zM462 50v617h-412v-617h412zM225 234l-2 17q0 56 13 81q7 13 18 27.5t28 31.5q16 15 26 26.5t15 21t7 18t2 17.5q0 36 -22.5 60.5t-53.5 24.5t-53.5 -22t-28.5 -73l-50 8q7 72 44 104.5t91 32.5t89 -35.5t35 -95.5q0 -32 -12.5 -58.5 t-50.5 -61.5q-37 -33 -43 -52q-6 -20 -6 -72h-46zM222 117v67h56v-67h-56z" />
    <glyph glyph-name="grave.cap" 
d="M-10 908h91l100 -144h-59z" />
    <glyph glyph-name="acute.cap" 
d="M118 764h-59l100 144h91z" />
    <glyph glyph-name="circumflex.cap" 
d="M269 764h-66l-83 108l-83 -108h-66l109 144h80z" />
    <glyph glyph-name="caron.cap" 
d="M160 764h-80l-109 144h66l83 -108l83 108h66z" />
    <glyph glyph-name="tilde.cap" 
d="M-42 776q3 19 9.5 38t17.5 33.5t26.5 23.5t38.5 9q18 0 36.5 -7t36.5 -16q18 -8 35 -15.5t32 -7.5q23 0 33.5 15.5t15.5 34.5h43q-3 -20 -9.5 -38.5t-17.5 -33t-27 -23.5t-38 -9q-18 0 -37 7t-36 16t-34 16t-33 7q-23 0 -33.5 -15.5t-15.5 -34.5h-43z" />
    <glyph glyph-name="commaaccent.alt" 
d="M172 749h57l-62 -185h-71z" />
    <glyph glyph-name="dieresis.cap" 
d="M165 847q0 20 14 35.5t37 15.5t37 -15.5t14 -35.5t-14 -35.5t-37 -15.5t-37 15.5t-14 35.5zM-27 847q0 20 14 35.5t37 15.5t37 -15.5t14 -35.5t-14 -35.5t-37 -15.5t-37 15.5t-14 35.5z" />
    <glyph glyph-name="dotaccent.cap" 
d="M168 848q0 -21 -15 -34.5t-33 -13.5t-33 13.5t-15 34.5t15 34.5t33 13.5t33 -13.5t15 -34.5z" />
    <glyph glyph-name="hungarumlaut.cap" 
d="M169 764h-59l100 144h91zM-2 764h-59l101 144h91z" />
    <glyph glyph-name="ring.cap" 
d="M180 850q0 25 -17.5 42t-42.5 17t-42.5 -17t-17.5 -42t17.5 -42t42.5 -17t42.5 17t17.5 42zM216 850q0 -20 -7.5 -37.5t-21 -30.5t-31 -20t-36.5 -7q-20 0 -37 7t-30.5 20t-21 30.5t-7.5 37.5t7.5 37.5t21 30t30.5 20t37 7.5q19 0 36.5 -7.5t31 -20t21 -30t7.5 -37.5z " />
    <glyph glyph-name="breve.cap" 
d="M267 908q-4 -63 -44.5 -97.5t-102.5 -34.5t-102.5 34.5t-44.5 97.5h44q7 -39 36 -58.5t67 -19.5t67 19.5t36 58.5h44z" />
    <glyph glyph-name="macron.cap" 
d="M255 800h-270v54h270v-54z" />
    <glyph glyph-name="caron.alt" 
d="M143 523h-57l62 185h71z" />
    <glyph glyph-name="exclam.sc" horiz-adv-x="286" 
d="M196 47q0 -21 -14.5 -37t-38.5 -16t-38.5 16t-14.5 37t14.5 37t38.5 16t38.5 -16t14.5 -37zM178 158h-70v373h70v-373z" />
    <glyph glyph-name="dollar.sc" horiz-adv-x="484" 
d="M214 478q-34 -2 -56 -20.5t-22 -56.5q0 -36 21 -54t57 -29v160zM261 55q35 3 58.5 25.5t23.5 61.5q0 36 -23 60.5t-59 36.5v-184zM214 252q-30 8 -56 19.5t-45.5 28.5t-30.5 40.5t-11 55.5t11 56.5t30.5 41.5t45.5 26t56 11v58h47v-58q77 -3 134 -58l-47 -45 q-18 22 -41 35.5t-46 13.5v-173q76 -23 113 -61.5t37 -99.5q0 -30 -11.5 -55.5t-32 -44.5t-48 -30.5t-58.5 -12.5v-61h-47v61q-51 2 -91 23.5t-70 56.5l51 43q20 -30 51.5 -48.5t58.5 -19.5v197z" />
    <glyph glyph-name="percent.sc" horiz-adv-x="660" 
d="M183 -31l-47 27l342 564l46 -27zM565 122q0 33 -23.5 55.5t-55.5 22.5t-55.5 -22.5t-23.5 -55.5q0 -34 23.5 -56t55.5 -22t55.5 22t23.5 56zM621 122q0 -28 -10.5 -52.5t-28.5 -42.5t-43 -28.5t-53 -10.5q-29 0 -53.5 10.5t-42.5 28.5t-28.5 42.5t-10.5 52.5t10.5 52.5 t28.5 42.5t42.5 28.5t53.5 10.5q28 0 53 -10.5t43 -28.5t28.5 -42.5t10.5 -52.5zM254 409q0 33 -23.5 55.5t-55.5 22.5t-55.5 -22.5t-23.5 -55.5q0 -34 23.5 -56t55.5 -22t55.5 22t23.5 56zM310 409q0 -28 -10.5 -52.5t-28.5 -42.5t-43 -28.5t-53 -10.5q-29 0 -53.5 10.5 t-42.5 28.5t-28.5 42.5t-10.5 52.5t10.5 52.5t28.5 42.5t42.5 28.5t53.5 10.5q28 0 53 -10.5t43 -28.5t28.5 -42.5t10.5 -52.5z" />
    <glyph glyph-name="ampersand.sc" horiz-adv-x="558" 
d="M205 252q-46 -23 -64.5 -50.5t-18.5 -62.5q0 -41 27 -66.5t70 -25.5q41 0 70.5 16.5t50.5 48.5zM310 424q0 29 -19 45.5t-45 16.5t-47.5 -19t-21.5 -50q0 -41 46 -90q47 23 67 46.5t20 50.5zM424 122l121 -122h-97l-63 66q-35 -43 -76.5 -60.5t-90.5 -17.5 q-34 0 -64.5 10t-53.5 29.5t-36.5 48t-13.5 64.5q0 55 31.5 91.5t82.5 64.5q-28 33 -41.5 62t-13.5 62q0 57 38.5 90t97.5 33q60 0 96.5 -31t36.5 -88q0 -24 -9.5 -44.5t-25 -38t-36.5 -31.5t-43 -25l113 -116l67 117h77z" />
    <glyph glyph-name="zero.sc" horiz-adv-x="484" 
d="M242 482q-31 0 -51 -20t-32 -51.5t-16.5 -70t-4.5 -75.5t4.5 -75.5t16.5 -69.5t32 -50.5t51 -19.5q30 0 50 19.5t32 50.5t17 69.5t5 75.5t-5 75.5t-17 70t-32 51.5t-50 20zM242 543q51 0 85.5 -24t55.5 -63t30 -89t9 -102t-9 -101.5t-30 -88.5t-55.5 -63t-85.5 -24 q-52 0 -86.5 24t-55.5 63t-29.5 88.5t-8.5 101.5t8.5 102t29.5 89t55.5 63t86.5 24z" />
    <glyph glyph-name="one.sc" horiz-adv-x="484" 
d="M315 0h-70v442l-86 -75l-42 49l136 115h62v-531z" />
    <glyph glyph-name="two.sc" horiz-adv-x="484" 
d="M414 0h-345v68l209 208q29 29 44 57t15 60q0 42 -25.5 64.5t-64.5 22.5q-37 0 -62.5 -22.5t-35.5 -67.5l-69 14q14 66 57.5 102.5t109.5 36.5q34 0 63.5 -9.5t51 -28t34 -46.5t12.5 -65q0 -45 -23.5 -85.5t-61.5 -78.5l-169 -167h260v-63z" />
    <glyph glyph-name="three.sc" horiz-adv-x="484" 
d="M177 309h35q47 0 77 20.5t30 65.5q0 39 -28.5 62.5t-64.5 23.5q-29 0 -53 -15t-41 -48l-58 32q27 48 65.5 70.5t89.5 22.5q33 0 62 -9.5t50.5 -28t34.5 -45.5t13 -62q0 -42 -25 -73t-63 -45q44 -13 72.5 -47t28.5 -82q0 -39 -13.5 -69.5t-37.5 -51t-55.5 -31.5t-67.5 -11 q-59 0 -103 29t-69 89l66 25q17 -42 44 -61t62 -19q20 0 38.5 6.5t33 19.5t23.5 31.5t9 42.5q0 26 -9.5 44.5t-25.5 30t-38 16.5t-47 5h-35v62z" />
    <glyph glyph-name="four.sc" horiz-adv-x="484" 
d="M283 442h-2l-155 -257h157v257zM349 185h75v-61h-75v-124h-66v124h-232v61l218 346h80v-346z" />
    <glyph glyph-name="five.sc" horiz-adv-x="484" 
d="M389 469h-215l-4 -140q27 9 58 9q82 0 129.5 -46t47.5 -124q0 -39 -13 -72t-36.5 -57t-57 -37.5t-74.5 -13.5q-59 0 -102.5 30t-60.5 78l64 28q10 -38 39 -55t58 -17q51 0 81.5 31t30.5 81q0 53 -33 84t-84 31q-25 0 -55.5 -9.5t-59.5 -26.5l5 288h282v-62z" />
    <glyph glyph-name="six.sc" horiz-adv-x="484" 
d="M137 160q0 -48 30 -78t76 -30q47 0 75.5 30.5t28.5 77.5q0 45 -28 76t-76 31q-50 0 -78 -31t-28 -76zM196 312q14 7 29 9.5t27 2.5q35 0 65 -11.5t52.5 -32.5t35 -51.5t12.5 -67.5q0 -38 -13 -70t-36 -55t-55 -35.5t-70 -12.5q-39 0 -71 12.5t-55.5 35t-36.5 54t-13 70.5 q0 36 12.5 71.5t35.5 70.5l143 229h80z" />
    <glyph glyph-name="seven.sc" horiz-adv-x="484" 
d="M408 475l-212 -475h-79l214 467h-251v64h328v-56z" />
    <glyph glyph-name="eight.sc" horiz-adv-x="484" 
d="M156 394q0 -38 25.5 -60t60.5 -22q34 0 59.5 22t25.5 60q0 39 -24.5 62.5t-60.5 23.5q-37 0 -61.5 -23.5t-24.5 -62.5zM139 151q0 -43 28 -71t75 -28t74.5 28t27.5 71t-28.5 70t-73.5 27t-74 -27t-29 -70zM395 397q0 -40 -21 -70t-53 -44v-2q42 -17 67.5 -52t25.5 -85 q0 -36 -13 -65t-36 -49.5t-54.5 -31t-68.5 -10.5t-68.5 10.5t-55 31t-36.5 49.5t-13 65q0 50 25 85t67 52v2q-32 14 -52.5 44t-20.5 70q0 33 12 60t33 46t49 29.5t60 10.5q31 0 59 -10.5t49 -29.5t33 -46t12 -60z" />
    <glyph glyph-name="nine.sc" horiz-adv-x="484" 
d="M346 371q0 48 -30 78t-76 30q-47 0 -75.5 -30.5t-28.5 -77.5q0 -45 28 -76t76 -31q50 0 78 31t28 76zM287 219q-14 -7 -29 -9.5t-27 -2.5q-35 0 -65 11.5t-52.5 32.5t-35 51t-12.5 68t13 70t36 55t55 35.5t70 12.5q39 0 71 -12.5t55.5 -35t36.5 -54t13 -70.5 q0 -36 -12.5 -71.5t-35.5 -70.5l-143 -229h-80z" />
    <glyph glyph-name="question.sc" horiz-adv-x="380" 
d="M243 47q0 -21 -14.5 -37t-38.5 -16t-38.5 16t-14.5 37t14.5 37t38.5 16t38.5 -16t14.5 -37zM219 158h-68v35q0 30 12 55.5t47 56.5l28 25q21 19 29 35t8 41q0 28 -22 52.5t-62 24.5q-30 0 -54 -17t-34 -61l-66 12q12 60 51.5 93t105.5 33q37 0 65 -11t47 -29.5t29 -42.5 t10 -50q0 -42 -16 -71.5t-54 -58.5q-18 -14 -29 -26t-17 -23.5t-8 -24t-2 -27.5v-21z" />
    <glyph glyph-name="a.sc" horiz-adv-x="534" 
d="M161 194h208l-103 256zM80 0h-74l229 531h65l228 -531h-79l-55 133h-258z" />
    <glyph glyph-name="b.sc" horiz-adv-x="516" 
d="M160 63h95q24 0 48 4t43 14.5t31 28t12 44.5q0 48 -32.5 69.5t-94.5 21.5h-102v-182zM160 306h99q43 0 74.5 19.5t31.5 64.5q0 44 -32.5 61.5t-85.5 17.5h-87v-163zM90 531h179q30 0 59.5 -6.5t53.5 -22t38.5 -41.5t14.5 -64q0 -44 -22 -73.5t-60 -43.5v-2 q48 -10 78 -41.5t30 -86.5q0 -37 -15.5 -65t-42.5 -47t-63.5 -28.5t-78.5 -9.5h-171v531z" />
    <glyph glyph-name="c.sc" horiz-adv-x="559" 
d="M537 86q-30 -43 -81 -70.5t-122 -27.5q-60 0 -111 20.5t-88 57.5t-58 88t-21 112q0 62 21.5 113t59 87.5t89 56.5t111.5 20q56 0 108.5 -21.5t81.5 -61.5l-56 -43q-19 27 -55 45t-79 18q-47 0 -85 -17t-64.5 -46t-41 -68t-14.5 -83q0 -45 14.5 -84t40.5 -68t63.5 -45.5 t84.5 -16.5q45 0 83 18t63 53z" />
    <glyph glyph-name="d.sc" horiz-adv-x="612" 
d="M160 63h96q50 0 91.5 14.5t71 40.5t46 63.5t16.5 84.5q0 48 -16.5 85.5t-46 63.5t-71 40t-91.5 14h-96v-406zM90 531h181q51 0 101.5 -15.5t91.5 -47.5t66.5 -82t25.5 -120q0 -68 -25.5 -118t-66.5 -83t-91.5 -49t-101.5 -16h-181v531z" />
    <glyph glyph-name="e.sc" horiz-adv-x="499" 
d="M160 63h279v-63h-349v531h338v-62h-268v-163h252v-61h-252v-182z" />
    <glyph glyph-name="f.sc" horiz-adv-x="469" 
d="M160 0h-70v531h329v-62h-259v-168h243v-61h-243v-240z" />
    <glyph glyph-name="g.sc" horiz-adv-x="617" 
d="M483 423q-23 26 -60.5 41.5t-84.5 15.5q-48 0 -86 -17t-64.5 -46t-41 -68t-14.5 -83q0 -45 14.5 -84t41 -68t65 -45.5t86.5 -16.5q80 0 128 28v149h-119v61h189v-254q-42 -23 -91.5 -35.5t-107.5 -12.5q-62 0 -113.5 20.5t-89 57.5t-58.5 88t-21 112q0 62 21.5 113 t59 87.5t89 56.5t111.5 20q63 0 113 -19t83 -51z" />
    <glyph glyph-name="h.sc" horiz-adv-x="615" 
d="M90 531h70v-225h295v225h70v-531h-70v245h-295v-245h-70v531z" />
    <glyph glyph-name="i.sc" horiz-adv-x="250" 
d="M160 0h-70v531h70v-531z" />
    <glyph glyph-name="j.sc" horiz-adv-x="400" 
d="M87 119q7 -29 27 -48t52 -19q25 0 41 9t25 24.5t12.5 36.5t3.5 44v365h70v-368q0 -27 -6 -58t-22 -57t-45 -43t-75 -17q-60 0 -98.5 31.5t-50.5 80.5z" />
    <glyph glyph-name="k.sc" horiz-adv-x="523" 
d="M160 296h2l239 235h99l-260 -243l275 -288h-102l-251 276h-2v-276h-70v531h70v-235z" />
    <glyph glyph-name="l.sc" horiz-adv-x="421" 
d="M160 63h239v-63h-309v531h70v-468z" />
    <glyph glyph-name="m.sc" horiz-adv-x="724" 
d="M363 117h2l160 414h109v-531h-70v447h-2l-179 -447h-43l-179 447h-1v-447h-70v531h110z" />
    <glyph glyph-name="n.sc" horiz-adv-x="613" 
d="M451 102h2v429h70v-531h-88l-274 438h-1v-438h-70v531h91z" />
    <glyph glyph-name="o.sc" horiz-adv-x="672" 
d="M540 267q0 44 -14.5 83t-41 68.5t-64.5 46.5t-85 17t-84.5 -17t-64 -46.5t-40.5 -68.5t-14 -83t14.5 -83.5t40.5 -69t63.5 -46.5t84.5 -17t85 17t64.5 46.5t41 69t14.5 83.5zM616 267q0 -61 -21.5 -112t-59 -88t-89 -58t-111.5 -21t-111 21t-88.5 58t-58.5 88t-21 112 t21 112t58.5 87.5t88.5 56.5t111 20t111.5 -20t89 -56.5t59 -87.5t21.5 -112z" />
    <glyph glyph-name="p.sc" horiz-adv-x="487" 
d="M160 275h87q56 0 90 24.5t34 74.5q0 51 -34.5 73t-89.5 22h-87v-194zM90 531h165q85 0 136 -39.5t51 -117.5q0 -39 -14.5 -68.5t-40 -49.5t-60.5 -30t-76 -10h-91v-216h-70v531z" />
    <glyph glyph-name="q.sc" horiz-adv-x="672" 
d="M132 270q0 -44 14 -82t40 -65.5t62.5 -43.5t82.5 -16q45 0 81.5 16t63 43.5t40.5 65.5t14 82q0 43 -14 81.5t-40 67.5t-63 46t-82 17t-81.5 -17t-63 -46t-40.5 -67.5t-14 -81.5zM641 0h-310q-60 0 -110.5 19.5t-87 54.5t-57 85t-20.5 111q0 60 21 110t57.5 86t87 56.5 t109.5 20.5t109 -20.5t86.5 -56.5t57 -86t20.5 -110q0 -69 -28.5 -121t-80.5 -84v-2h146v-63z" />
    <glyph glyph-name="r.sc" horiz-adv-x="497" 
d="M160 298h87q55 0 91 19.5t36 67.5q0 24 -9.5 40.5t-26 26t-39 13.5t-47.5 4h-92v-171zM160 0h-70v531h168q39 0 73 -8t59.5 -25t40 -45t14.5 -68q0 -59 -36.5 -94.5t-93.5 -44.5l149 -246h-85l-138 237h-81v-237z" />
    <glyph glyph-name="s.sc" horiz-adv-x="450" 
d="M339 433q-17 23 -44 36.5t-61 13.5q-18 0 -37 -5t-34 -15.5t-24.5 -26.5t-9.5 -39t8.5 -37.5t23.5 -25t34.5 -17.5t42.5 -14q27 -9 55 -19t50.5 -27t37 -42.5t14.5 -65.5q0 -41 -15.5 -71.5t-41 -50.5t-58 -29.5t-67.5 -9.5q-50 0 -97 20t-76 58l56 47q17 -29 48.5 -46.5 t69.5 -17.5q19 0 38.5 5.5t35.5 17t26 29t10 41.5q0 25 -10.5 41.5t-28 27.5t-40.5 18.5t-48 15.5q-26 8 -51 18.5t-44.5 27.5t-31.5 42t-12 61q0 39 16 67.5t41.5 46.5t57.5 26.5t65 8.5q47 0 87 -17t64 -45z" />
    <glyph glyph-name="t.sc" horiz-adv-x="438" 
d="M253 0h-70v469h-171v62h414v-62h-173v-469z" />
    <glyph glyph-name="u.sc" horiz-adv-x="572" 
d="M286 -12q-54 0 -92.5 18t-63.5 47.5t-36.5 67.5t-11.5 78v332h70v-327q0 -29 6.5 -56t22.5 -48.5t41.5 -34.5t63.5 -13q37 0 63 13t41.5 34.5t22.5 48.5t7 56v327h70v-332q0 -40 -12 -78t-36.5 -67.5t-63 -47.5t-92.5 -18z" />
    <glyph glyph-name="v.sc" horiz-adv-x="497" 
d="M248 91h2l162 440h77l-207 -531h-67l-207 531h77z" />
    <glyph glyph-name="w.sc" horiz-adv-x="766" 
d="M217 102h2l125 429h79l125 -429h2l119 429h75l-156 -531h-75l-129 432h-1l-131 -432h-74l-156 531h75z" />
    <glyph glyph-name="x.sc" horiz-adv-x="490" 
d="M245 330l129 201h83l-169 -251l192 -280h-88l-147 227l-147 -227h-88l191 280l-174 251h87z" />
    <glyph glyph-name="y.sc" horiz-adv-x="468" 
d="M268 0h-70v230l-198 301h84l150 -243l150 243h84l-200 -301v-230z" />
    <glyph glyph-name="z.sc" horiz-adv-x="498" 
d="M440 471l-301 -408h306v-63h-392v61l300 408h-294v62h381v-60z" />
    <glyph glyph-name="agrave.sc" horiz-adv-x="534" 
d="M161 194h208l-103 256zM80 0h-74l229 531h65l228 -531h-79l-55 133h-258zM104 738h91l100 -144h-59z" />
    <glyph glyph-name="aacute.sc" horiz-adv-x="534" 
d="M161 194h208l-103 256zM80 0h-74l229 531h65l228 -531h-79l-55 133h-258zM300 594h-59l100 144h91z" />
    <glyph glyph-name="acircumflex.sc" horiz-adv-x="534" 
d="M161 194h208l-103 256zM80 0h-74l229 531h65l228 -531h-79l-55 133h-258zM416 594h-66l-83 108l-83 -108h-66l109 144h80z" />
    <glyph glyph-name="atilde.sc" horiz-adv-x="534" 
d="M161 194h208l-103 256zM80 0h-74l229 531h65l228 -531h-79l-55 133h-258zM105 611q3 19 9.5 38t17.5 33.5t26.5 23.5t38.5 9q18 0 36.5 -7t36.5 -16q18 -8 35 -15.5t32 -7.5q23 0 33.5 15.5t15.5 34.5h43q-3 -20 -9.5 -38.5t-17.5 -33t-27 -23.5t-38 -9q-18 0 -37 7 t-36 16t-34 16t-33 7q-23 0 -33.5 -15.5t-15.5 -34.5h-43z" />
    <glyph glyph-name="adieresis.sc" horiz-adv-x="534" 
d="M161 194h208l-103 256zM80 0h-74l229 531h65l228 -531h-79l-55 133h-258zM312 677q0 20 14 35.5t37 15.5t37 -15.5t14 -35.5t-14 -35.5t-37 -15.5t-37 15.5t-14 35.5zM120 677q0 20 14 35.5t37 15.5t37 -15.5t14 -35.5t-14 -35.5t-37 -15.5t-37 15.5t-14 35.5z" />
    <glyph glyph-name="amacron.sc" horiz-adv-x="534" 
d="M161 194h208l-103 256zM80 0h-74l229 531h65l228 -531h-79l-55 133h-258zM402 630h-270v54h270v-54z" />
    <glyph glyph-name="abreve.sc" horiz-adv-x="534" 
d="M161 194h208l-103 256zM80 0h-74l229 531h65l228 -531h-79l-55 133h-258zM414 738q-4 -63 -44.5 -97.5t-102.5 -34.5t-102.5 34.5t-44.5 97.5h44q7 -39 36 -58.5t67 -19.5t67 19.5t36 58.5h44z" />
    <glyph glyph-name="aring.sc" horiz-adv-x="534" 
d="M161 194h208l-103 256zM80 0h-74l229 531h65l228 -531h-79l-55 133h-258zM327 680q0 25 -17.5 42t-42.5 17t-42.5 -17t-17.5 -42t17.5 -42t42.5 -17t42.5 17t17.5 42zM363 680q0 -20 -7.5 -37.5t-21 -30.5t-31 -20t-36.5 -7q-20 0 -37 7t-30.5 20t-21 30.5t-7.5 37.5 t7.5 37.5t21 30t30.5 20t37 7.5q19 0 36.5 -7.5t31 -20t21 -30t7.5 -37.5z" />
    <glyph glyph-name="aogonek.sc" horiz-adv-x="534" 
d="M161 194h208l-103 256zM540 -187q-17 -17 -41 -26.5t-49 -9.5q-18 0 -34 6t-28.5 17.5t-20 27t-7.5 34.5q0 21 8 40.5t21 37t29 33t31 27.5l-55 133h-258l-56 -133h-74l229 531h65l228 -531h-31q-37 -37 -57 -64.5t-20 -56.5q0 -21 15 -34.5t35 -13.5q14 0 27.5 5.5 t23.5 16.5z" />
    <glyph glyph-name="ae.sc" horiz-adv-x="779" 
d="M191 204h179v265h-10zM440 63h279v-63h-349v143h-217l-92 -143h-81l345 531h383v-62h-268v-163h252v-61h-252v-182z" />
    <glyph glyph-name="cacute.sc" horiz-adv-x="559" 
d="M537 86q-30 -43 -81 -70.5t-122 -27.5q-60 0 -111 20.5t-88 57.5t-58 88t-21 112q0 62 21.5 113t59 87.5t89 56.5t111.5 20q56 0 108.5 -21.5t81.5 -61.5l-56 -43q-19 27 -55 45t-79 18q-47 0 -85 -17t-64.5 -46t-41 -68t-14.5 -83q0 -45 14.5 -84t40.5 -68t63.5 -45.5 t84.5 -16.5q45 0 83 18t63 53zM330 594h-59l100 144h91z" />
    <glyph glyph-name="ccircumflex.sc" horiz-adv-x="559" 
d="M537 86q-30 -43 -81 -70.5t-122 -27.5q-60 0 -111 20.5t-88 57.5t-58 88t-21 112q0 62 21.5 113t59 87.5t89 56.5t111.5 20q56 0 108.5 -21.5t81.5 -61.5l-56 -43q-19 27 -55 45t-79 18q-47 0 -85 -17t-64.5 -46t-41 -68t-14.5 -83q0 -45 14.5 -84t40.5 -68t63.5 -45.5 t84.5 -16.5q45 0 83 18t63 53zM485 594h-66l-83 108l-83 -108h-66l109 144h80z" />
    <glyph glyph-name="ccaron.sc" horiz-adv-x="559" 
d="M537 86q-30 -43 -81 -70.5t-122 -27.5q-60 0 -111 20.5t-88 57.5t-58 88t-21 112q0 62 21.5 113t59 87.5t89 56.5t111.5 20q56 0 108.5 -21.5t81.5 -61.5l-56 -43q-19 27 -55 45t-79 18q-47 0 -85 -17t-64.5 -46t-41 -68t-14.5 -83q0 -45 14.5 -84t40.5 -68t63.5 -45.5 t84.5 -16.5q45 0 83 18t63 53zM375 594h-80l-109 144h66l83 -108l83 108h66z" />
    <glyph glyph-name="cdotaccent.sc" horiz-adv-x="559" 
d="M537 86q-30 -43 -81 -70.5t-122 -27.5q-60 0 -111 20.5t-88 57.5t-58 88t-21 112q0 62 21.5 113t59 87.5t89 56.5t111.5 20q56 0 108.5 -21.5t81.5 -61.5l-56 -43q-19 27 -55 45t-79 18q-47 0 -85 -17t-64.5 -46t-41 -68t-14.5 -83q0 -45 14.5 -84t40.5 -68t63.5 -45.5 t84.5 -16.5q45 0 83 18t63 53zM385 678q0 -21 -15 -34.5t-33 -13.5t-33 13.5t-15 34.5t15 34.5t33 13.5t33 -13.5t15 -34.5z" />
    <glyph glyph-name="ccedilla.sc" horiz-adv-x="559" 
d="M537 86q-29 -42 -79 -69t-119 -29l-39 -63q13 4 35 4q30 0 56 -18t26 -54q0 -25 -11 -42t-28 -27t-38 -14t-41 -4t-46.5 5t-47.5 15l16 36q17 -8 35 -11t37 -3q8 0 19 2t21 7.5t17 14t7 20.5q0 20 -14.5 29.5t-39.5 9.5q-22 0 -43 -8l-18 15l55 88q-53 6 -97.5 28.5 t-76.5 58.5t-49.5 84t-17.5 105q0 62 21.5 113t59 87.5t89 56.5t111.5 20q56 0 108.5 -21.5t81.5 -61.5l-56 -43q-19 27 -55 45t-79 18q-47 0 -85 -17t-64.5 -46t-41 -68t-14.5 -83q0 -45 14.5 -84t40.5 -68t63.5 -45.5t84.5 -16.5q45 0 83 18t63 53z" />
    <glyph glyph-name="dcaron.sc" horiz-adv-x="612" 
d="M160 63h96q50 0 91.5 14.5t71 40.5t46 63.5t16.5 84.5q0 48 -16.5 85.5t-46 63.5t-71 40t-91.5 14h-96v-406zM90 531h181q51 0 101.5 -15.5t91.5 -47.5t66.5 -82t25.5 -120q0 -68 -25.5 -118t-66.5 -83t-91.5 -49t-101.5 -16h-181v531zM333 594h-80l-109 144h66l83 -108 l83 108h66z" />
    <glyph glyph-name="dcroat.sc" horiz-adv-x="612" 
d="M160 303h145v-52h-145v-188h96q50 0 91.5 14.5t71 40.5t46 63.5t16.5 84.5q0 48 -16.5 85.5t-46 63.5t-71 40t-91.5 14h-96v-166zM17 303h73v228h181q51 0 101.5 -15.5t91.5 -47.5t66.5 -82t25.5 -120q0 -68 -25.5 -118t-66.5 -83t-91.5 -49t-101.5 -16h-181v251h-73v52z " />
    <glyph glyph-name="eth.sc" horiz-adv-x="612" 
d="M160 303h145v-52h-145v-188h96q50 0 91.5 14.5t71 40.5t46 63.5t16.5 84.5q0 48 -16.5 85.5t-46 63.5t-71 40t-91.5 14h-96v-166zM17 303h73v228h181q51 0 101.5 -15.5t91.5 -47.5t66.5 -82t25.5 -120q0 -68 -25.5 -118t-66.5 -83t-91.5 -49t-101.5 -16h-181v251h-73v52z " />
    <glyph glyph-name="egrave.sc" horiz-adv-x="499" 
d="M160 63h279v-63h-349v531h338v-62h-268v-163h252v-61h-252v-182zM116 738h91l100 -144h-59z" />
    <glyph glyph-name="eacute.sc" horiz-adv-x="499" 
d="M160 63h279v-63h-349v531h338v-62h-268v-163h252v-61h-252v-182zM275 594h-59l100 144h91z" />
    <glyph glyph-name="ecircumflex.sc" horiz-adv-x="499" 
d="M160 63h279v-63h-349v531h338v-62h-268v-163h252v-61h-252v-182zM406 594h-66l-83 108l-83 -108h-66l109 144h80z" />
    <glyph glyph-name="ecaron.sc" horiz-adv-x="499" 
d="M160 63h279v-63h-349v531h338v-62h-268v-163h252v-61h-252v-182zM302 594h-80l-109 144h66l83 -108l83 108h66z" />
    <glyph glyph-name="edieresis.sc" horiz-adv-x="499" 
d="M160 63h279v-63h-349v531h338v-62h-268v-163h252v-61h-252v-182zM305 677q0 20 14 35.5t37 15.5t37 -15.5t14 -35.5t-14 -35.5t-37 -15.5t-37 15.5t-14 35.5zM113 677q0 20 14 35.5t37 15.5t37 -15.5t14 -35.5t-14 -35.5t-37 -15.5t-37 15.5t-14 35.5z" />
    <glyph glyph-name="emacron.sc" horiz-adv-x="499" 
d="M160 63h279v-63h-349v531h338v-62h-268v-163h252v-61h-252v-182zM398 630h-270v54h270v-54z" />
    <glyph glyph-name="ebreve.sc" horiz-adv-x="499" 
d="M160 63h279v-63h-349v531h338v-62h-268v-163h252v-61h-252v-182zM405 738q-4 -63 -44.5 -97.5t-102.5 -34.5t-102.5 34.5t-44.5 97.5h44q7 -39 36 -58.5t67 -19.5t67 19.5t36 58.5h44z" />
    <glyph glyph-name="edotaccent.sc" horiz-adv-x="499" 
d="M160 63h279v-63h-349v531h338v-62h-268v-163h252v-61h-252v-182zM312 678q0 -21 -15 -34.5t-33 -13.5t-33 13.5t-15 34.5t15 34.5t33 13.5t33 -13.5t15 -34.5z" />
    <glyph glyph-name="eogonek.sc" horiz-adv-x="499" 
d="M463 -187q-17 -17 -41 -26.5t-49 -9.5q-18 0 -34 6t-28.5 17.5t-20 27t-7.5 34.5q0 21 8 40.5t21 37t29 33t31 27.5h-282v531h338v-62h-268v-163h252v-61h-252v-182h279v-63h-19q-37 -37 -57 -64.5t-20 -56.5q0 -21 15 -34.5t35 -13.5q14 0 27.5 5.5t23.5 16.5z" />
    <glyph glyph-name="gcircumflex.sc" horiz-adv-x="617" 
d="M483 423q-23 26 -60.5 41.5t-84.5 15.5q-48 0 -86 -17t-64.5 -46t-41 -68t-14.5 -83q0 -45 14.5 -84t41 -68t65 -45.5t86.5 -16.5q80 0 128 28v149h-119v61h189v-254q-42 -23 -91.5 -35.5t-107.5 -12.5q-62 0 -113.5 20.5t-89 57.5t-58.5 88t-21 112q0 62 21.5 113 t59 87.5t89 56.5t111.5 20q63 0 113 -19t83 -51zM487 594h-66l-83 108l-83 -108h-66l109 144h80z" />
    <glyph glyph-name="gbreve.sc" horiz-adv-x="617" 
d="M483 423q-23 26 -60.5 41.5t-84.5 15.5q-48 0 -86 -17t-64.5 -46t-41 -68t-14.5 -83q0 -45 14.5 -84t41 -68t65 -45.5t86.5 -16.5q80 0 128 28v149h-119v61h189v-254q-42 -23 -91.5 -35.5t-107.5 -12.5q-62 0 -113.5 20.5t-89 57.5t-58.5 88t-21 112q0 62 21.5 113 t59 87.5t89 56.5t111.5 20q63 0 113 -19t83 -51zM486 738q-4 -63 -44.5 -97.5t-102.5 -34.5t-102.5 34.5t-44.5 97.5h44q7 -39 36 -58.5t67 -19.5t67 19.5t36 58.5h44z" />
    <glyph glyph-name="gdotaccent.sc" horiz-adv-x="617" 
d="M483 423q-23 26 -60.5 41.5t-84.5 15.5q-48 0 -86 -17t-64.5 -46t-41 -68t-14.5 -83q0 -45 14.5 -84t41 -68t65 -45.5t86.5 -16.5q80 0 128 28v149h-119v61h189v-254q-42 -23 -91.5 -35.5t-107.5 -12.5q-62 0 -113.5 20.5t-89 57.5t-58.5 88t-21 112q0 62 21.5 113 t59 87.5t89 56.5t111.5 20q63 0 113 -19t83 -51zM384 678q0 -21 -15 -34.5t-33 -13.5t-33 13.5t-15 34.5t15 34.5t33 13.5t33 -13.5t15 -34.5z" />
    <glyph glyph-name="gcommaaccent.sc" horiz-adv-x="617" 
d="M483 423q-23 26 -60.5 41.5t-84.5 15.5q-48 0 -86 -17t-64.5 -46t-41 -68t-14.5 -83q0 -45 14.5 -84t41 -68t65 -45.5t86.5 -16.5q80 0 128 28v149h-119v61h189v-254q-42 -23 -91.5 -35.5t-107.5 -12.5q-62 0 -113.5 20.5t-89 57.5t-58.5 88t-21 112q0 62 21.5 113 t59 87.5t89 56.5t111.5 20q63 0 113 -19t83 -51zM305 -230h-57l62 185h71z" />
    <glyph glyph-name="hcircumflex.sc" horiz-adv-x="615" 
d="M90 531h70v-225h295v225h70v-531h-70v245h-295v-245h-70v531zM456 594h-66l-83 108l-83 -108h-66l109 144h80z" />
    <glyph glyph-name="hbar.sc" horiz-adv-x="615" 
d="M455 306v79h-295v-79h295zM90 531h70v-106h295v106h70v-531h-70v245h-295v-245h-70v531z" />
    <glyph glyph-name="igrave.sc" horiz-adv-x="250" 
d="M160 0h-70v531h70v-531zM-30 738h91l100 -144h-59z" />
    <glyph glyph-name="iacute.sc" horiz-adv-x="250" 
d="M160 0h-70v531h70v-531zM151 594h-59l100 144h91z" />
    <glyph glyph-name="icircumflex.sc" horiz-adv-x="250" 
d="M160 0h-70v531h70v-531zM273 594h-66l-83 108l-83 -108h-66l109 144h80z" />
    <glyph glyph-name="itilde.sc" horiz-adv-x="250" 
d="M160 0h-70v531h70v-531zM-38 611q3 19 9.5 38t17.5 33.5t26.5 23.5t38.5 9q18 0 36.5 -7t36.5 -16q18 -8 35 -15.5t32 -7.5q23 0 33.5 15.5t15.5 34.5h43q-3 -20 -9.5 -38.5t-17.5 -33t-27 -23.5t-38 -9q-18 0 -37 7t-36 16t-34 16t-33 7q-23 0 -33.5 -15.5t-15.5 -34.5 h-43z" />
    <glyph glyph-name="idieresis.sc" horiz-adv-x="250" 
d="M160 0h-70v531h70v-531zM169 677q0 20 14 35.5t37 15.5t37 -15.5t14 -35.5t-14 -35.5t-37 -15.5t-37 15.5t-14 35.5zM-23 677q0 20 14 35.5t37 15.5t37 -15.5t14 -35.5t-14 -35.5t-37 -15.5t-37 15.5t-14 35.5z" />
    <glyph glyph-name="imacron.sc" horiz-adv-x="250" 
d="M160 0h-70v531h70v-531zM261 630h-270v54h270v-54z" />
    <glyph glyph-name="idotaccent.sc" horiz-adv-x="250" 
d="M160 0h-70v531h70v-531zM174 648q0 -21 -15 -34.5t-33 -13.5t-33 13.5t-15 34.5t15 34.5t33 13.5t33 -13.5t15 -34.5z" />
    <glyph glyph-name="iogonek.sc" horiz-adv-x="250" 
d="M203 -187q-17 -17 -41 -26.5t-49 -9.5q-18 0 -34 6t-28.5 17.5t-20 27t-7.5 34.5q0 21 8 40.5t21 37t29 33t31 27.5h-22v531h70v-531q-18 -18 -32.5 -34t-24.5 -30q-20 -29 -20 -57q0 -21 15 -34.5t35 -13.5q14 0 27.5 5.5t23.5 16.5z" />
    <glyph glyph-name="jcircumflex.sc" horiz-adv-x="400" 
d="M87 119q7 -29 27 -48t52 -19q25 0 41 9t25 24.5t12.5 36.5t3.5 44v365h70v-368q0 -27 -6 -58t-22 -57t-45 -43t-75 -17q-60 0 -98.5 31.5t-50.5 80.5zM431 594h-66l-83 108l-83 -108h-66l109 144h80z" />
    <glyph glyph-name="kcommaaccent.sc" horiz-adv-x="523" 
d="M160 296h2l239 235h99l-260 -243l275 -288h-102l-251 276h-2v-276h-70v531h70v-235zM246 -230h-57l62 185h71z" />
    <glyph glyph-name="lacute.sc" horiz-adv-x="421" 
d="M160 63h239v-63h-309v531h70v-468zM156 594h-59l100 144h91z" />
    <glyph glyph-name="lcaron.sc" horiz-adv-x="421" 
d="M160 63h239v-63h-309v531h70v-468zM283 346h-57l62 185h71z" />
    <glyph glyph-name="lcommaaccent.sc" horiz-adv-x="421" 
d="M160 63h239v-63h-309v531h70v-468zM222 -230h-57l62 185h71z" />
    <glyph glyph-name="lslash.sc" horiz-adv-x="421" 
d="M160 367l123 102v-70l-123 -102v-234h239v-63h-309v239l-82 -67v70l82 67v222h70v-164z" />
    <glyph glyph-name="ldot.sc" horiz-adv-x="421" 
d="M160 63h239v-63h-309v531h70v-468zM376 268q0 -21 -15 -34.5t-33 -13.5t-33 13.5t-15 34.5t15 34.5t33 13.5t33 -13.5t15 -34.5z" />
    <glyph glyph-name="nacute.sc" horiz-adv-x="613" 
d="M451 102h2v429h70v-531h-88l-274 438h-1v-438h-70v531h91zM310 594h-59l100 144h91z" />
    <glyph glyph-name="ncaron.sc" horiz-adv-x="613" 
d="M451 102h2v429h70v-531h-88l-274 438h-1v-438h-70v531h91zM348 594h-80l-109 144h66l83 -108l83 108h66z" />
    <glyph glyph-name="ntilde.sc" horiz-adv-x="613" 
d="M451 102h2v429h70v-531h-88l-274 438h-1v-438h-70v531h91zM144 611q3 19 9.5 38t17.5 33.5t26.5 23.5t38.5 9q18 0 36.5 -7t36.5 -16q18 -8 35 -15.5t32 -7.5q23 0 33.5 15.5t15.5 34.5h43q-3 -20 -9.5 -38.5t-17.5 -33t-27 -23.5t-38 -9q-18 0 -37 7t-36 16t-34 16 t-33 7q-23 0 -33.5 -15.5t-15.5 -34.5h-43z" />
    <glyph glyph-name="ncommaaccent.sc" horiz-adv-x="613" 
d="M451 102h2v429h70v-531h-88l-274 438h-1v-438h-70v531h91zM278 -230h-57l62 185h71z" />
    <glyph glyph-name="ograve.sc" horiz-adv-x="672" 
d="M540 267q0 44 -14.5 83t-41 68.5t-64.5 46.5t-85 17t-84.5 -17t-64 -46.5t-40.5 -68.5t-14 -83t14.5 -83.5t40.5 -69t63.5 -46.5t84.5 -17t85 17t64.5 46.5t41 69t14.5 83.5zM616 267q0 -61 -21.5 -112t-59 -88t-89 -58t-111.5 -21t-111 21t-88.5 58t-58.5 88t-21 112 t21 112t58.5 87.5t88.5 56.5t111 20t111.5 -20t89 -56.5t59 -87.5t21.5 -112zM189 738h91l100 -144h-59z" />
    <glyph glyph-name="oacute.sc" horiz-adv-x="672" 
d="M540 267q0 44 -14.5 83t-41 68.5t-64.5 46.5t-85 17t-84.5 -17t-64 -46.5t-40.5 -68.5t-14 -83t14.5 -83.5t40.5 -69t63.5 -46.5t84.5 -17t85 17t64.5 46.5t41 69t14.5 83.5zM616 267q0 -61 -21.5 -112t-59 -88t-89 -58t-111.5 -21t-111 21t-88.5 58t-58.5 88t-21 112 t21 112t58.5 87.5t88.5 56.5t111 20t111.5 -20t89 -56.5t59 -87.5t21.5 -112zM347 594h-59l100 144h91z" />
    <glyph glyph-name="ocircumflex.sc" horiz-adv-x="672" 
d="M540 267q0 44 -14.5 83t-41 68.5t-64.5 46.5t-85 17t-84.5 -17t-64 -46.5t-40.5 -68.5t-14 -83t14.5 -83.5t40.5 -69t63.5 -46.5t84.5 -17t85 17t64.5 46.5t41 69t14.5 83.5zM616 267q0 -61 -21.5 -112t-59 -88t-89 -58t-111.5 -21t-111 21t-88.5 58t-58.5 88t-21 112 t21 112t58.5 87.5t88.5 56.5t111 20t111.5 -20t89 -56.5t59 -87.5t21.5 -112zM485 594h-66l-83 108l-83 -108h-66l109 144h80z" />
    <glyph glyph-name="otilde.sc" horiz-adv-x="672" 
d="M540 267q0 44 -14.5 83t-41 68.5t-64.5 46.5t-85 17t-84.5 -17t-64 -46.5t-40.5 -68.5t-14 -83t14.5 -83.5t40.5 -69t63.5 -46.5t84.5 -17t85 17t64.5 46.5t41 69t14.5 83.5zM616 267q0 -61 -21.5 -112t-59 -88t-89 -58t-111.5 -21t-111 21t-88.5 58t-58.5 88t-21 112 t21 112t58.5 87.5t88.5 56.5t111 20t111.5 -20t89 -56.5t59 -87.5t21.5 -112zM173 611q3 19 9.5 38t17.5 33.5t26.5 23.5t38.5 9q18 0 36.5 -7t36.5 -16q18 -8 35 -15.5t32 -7.5q23 0 33.5 15.5t15.5 34.5h43q-3 -20 -9.5 -38.5t-17.5 -33t-27 -23.5t-38 -9q-18 0 -37 7 t-36 16t-34 16t-33 7q-23 0 -33.5 -15.5t-15.5 -34.5h-43z" />
    <glyph glyph-name="odieresis.sc" horiz-adv-x="672" 
d="M540 267q0 44 -14.5 83t-41 68.5t-64.5 46.5t-85 17t-84.5 -17t-64 -46.5t-40.5 -68.5t-14 -83t14.5 -83.5t40.5 -69t63.5 -46.5t84.5 -17t85 17t64.5 46.5t41 69t14.5 83.5zM616 267q0 -61 -21.5 -112t-59 -88t-89 -58t-111.5 -21t-111 21t-88.5 58t-58.5 88t-21 112 t21 112t58.5 87.5t88.5 56.5t111 20t111.5 -20t89 -56.5t59 -87.5t21.5 -112zM379 677q0 20 14 35.5t37 15.5t37 -15.5t14 -35.5t-14 -35.5t-37 -15.5t-37 15.5t-14 35.5zM187 677q0 20 14 35.5t37 15.5t37 -15.5t14 -35.5t-14 -35.5t-37 -15.5t-37 15.5t-14 35.5z" />
    <glyph glyph-name="omacron.sc" horiz-adv-x="672" 
d="M540 267q0 44 -14.5 83t-41 68.5t-64.5 46.5t-85 17t-84.5 -17t-64 -46.5t-40.5 -68.5t-14 -83t14.5 -83.5t40.5 -69t63.5 -46.5t84.5 -17t85 17t64.5 46.5t41 69t14.5 83.5zM616 267q0 -61 -21.5 -112t-59 -88t-89 -58t-111.5 -21t-111 21t-88.5 58t-58.5 88t-21 112 t21 112t58.5 87.5t88.5 56.5t111 20t111.5 -20t89 -56.5t59 -87.5t21.5 -112zM471 630h-270v54h270v-54z" />
    <glyph glyph-name="obreve.sc" horiz-adv-x="672" 
d="M540 267q0 44 -14.5 83t-41 68.5t-64.5 46.5t-85 17t-84.5 -17t-64 -46.5t-40.5 -68.5t-14 -83t14.5 -83.5t40.5 -69t63.5 -46.5t84.5 -17t85 17t64.5 46.5t41 69t14.5 83.5zM616 267q0 -61 -21.5 -112t-59 -88t-89 -58t-111.5 -21t-111 21t-88.5 58t-58.5 88t-21 112 t21 112t58.5 87.5t88.5 56.5t111 20t111.5 -20t89 -56.5t59 -87.5t21.5 -112zM482 738q-4 -63 -44.5 -97.5t-102.5 -34.5t-102.5 34.5t-44.5 97.5h44q7 -39 36 -58.5t67 -19.5t67 19.5t36 58.5h44z" />
    <glyph glyph-name="ohungarumlaut.sc" horiz-adv-x="672" 
d="M540 267q0 44 -14.5 83t-41 68.5t-64.5 46.5t-85 17t-84.5 -17t-64 -46.5t-40.5 -68.5t-14 -83t14.5 -83.5t40.5 -69t63.5 -46.5t84.5 -17t85 17t64.5 46.5t41 69t14.5 83.5zM616 267q0 -61 -21.5 -112t-59 -88t-89 -58t-111.5 -21t-111 21t-88.5 58t-58.5 88t-21 112 t21 112t58.5 87.5t88.5 56.5t111 20t111.5 -20t89 -56.5t59 -87.5t21.5 -112zM440 594h-59l100 144h91zM269 594h-59l101 144h91z" />
    <glyph glyph-name="oslash.sc" horiz-adv-x="672" 
d="M132 266q0 -74 37 -131l295 302q-25 21 -57.5 33.5t-71.5 12.5q-47 0 -84.5 -17.5t-64 -47t-40.5 -69t-14 -83.5zM540 266q0 80 -45 139l-297 -304q26 -24 60.5 -37.5t76.5 -13.5q47 0 85 17t64.5 46.5t41 68.5t14.5 84zM616 266q0 -61 -21.5 -112t-59 -88t-89 -57.5 t-111.5 -20.5q-111 0 -186 63l-77 -79l-32 31l78 80q-29 36 -45.5 82.5t-16.5 100.5q0 62 21 113t58.5 87.5t88.5 56.5t111 20q105 0 178 -56l68 70l32 -31l-67 -69q33 -37 51.5 -85t18.5 -106z" />
    <glyph glyph-name="oe.sc" horiz-adv-x="777" 
d="M368 63v406h-32q-44 0 -80 -15.5t-62.5 -43t-41 -64.5t-14.5 -80q0 -44 15 -81t41 -64t62.5 -42.5t79.5 -15.5h32zM438 63h279v-63h-381q-56 0 -105.5 19t-86.5 54t-58.5 84t-21.5 109t21.5 109t58.5 83.5t86.5 53.5t105.5 19h370v-62h-268v-163h252v-61h-252v-182z" />
    <glyph glyph-name="racute.sc" horiz-adv-x="497" 
d="M160 298h87q55 0 91 19.5t36 67.5q0 24 -9.5 40.5t-26 26t-39 13.5t-47.5 4h-92v-171zM160 0h-70v531h168q39 0 73 -8t59.5 -25t40 -45t14.5 -68q0 -59 -36.5 -94.5t-93.5 -44.5l149 -246h-85l-138 237h-81v-237zM248 594h-59l100 144h91z" />
    <glyph glyph-name="rcaron.sc" horiz-adv-x="497" 
d="M160 298h87q55 0 91 19.5t36 67.5q0 24 -9.5 40.5t-26 26t-39 13.5t-47.5 4h-92v-171zM160 0h-70v531h168q39 0 73 -8t59.5 -25t40 -45t14.5 -68q0 -59 -36.5 -94.5t-93.5 -44.5l149 -246h-85l-138 237h-81v-237zM294 594h-80l-109 144h66l83 -108l83 108h66z" />
    <glyph glyph-name="rcommaaccent.sc" horiz-adv-x="497" 
d="M160 298h87q55 0 91 19.5t36 67.5q0 24 -9.5 40.5t-26 26t-39 13.5t-47.5 4h-92v-171zM160 0h-70v531h168q39 0 73 -8t59.5 -25t40 -45t14.5 -68q0 -59 -36.5 -94.5t-93.5 -44.5l149 -246h-85l-138 237h-81v-237zM232 -230h-57l62 185h71z" />
    <glyph glyph-name="sacute.sc" horiz-adv-x="450" 
d="M339 433q-17 23 -44 36.5t-61 13.5q-18 0 -37 -5t-34 -15.5t-24.5 -26.5t-9.5 -39t8.5 -37.5t23.5 -25t34.5 -17.5t42.5 -14q27 -9 55 -19t50.5 -27t37 -42.5t14.5 -65.5q0 -41 -15.5 -71.5t-41 -50.5t-58 -29.5t-67.5 -9.5q-50 0 -97 20t-76 58l56 47q17 -29 48.5 -46.5 t69.5 -17.5q19 0 38.5 5.5t35.5 17t26 29t10 41.5q0 25 -10.5 41.5t-28 27.5t-40.5 18.5t-48 15.5q-26 8 -51 18.5t-44.5 27.5t-31.5 42t-12 61q0 39 16 67.5t41.5 46.5t57.5 26.5t65 8.5q47 0 87 -17t64 -45zM229 594h-59l100 144h91z" />
    <glyph glyph-name="scircumflex.sc" horiz-adv-x="450" 
d="M339 433q-17 23 -44 36.5t-61 13.5q-18 0 -37 -5t-34 -15.5t-24.5 -26.5t-9.5 -39t8.5 -37.5t23.5 -25t34.5 -17.5t42.5 -14q27 -9 55 -19t50.5 -27t37 -42.5t14.5 -65.5q0 -41 -15.5 -71.5t-41 -50.5t-58 -29.5t-67.5 -9.5q-50 0 -97 20t-76 58l56 47q17 -29 48.5 -46.5 t69.5 -17.5q19 0 38.5 5.5t35.5 17t26 29t10 41.5q0 25 -10.5 41.5t-28 27.5t-40.5 18.5t-48 15.5q-26 8 -51 18.5t-44.5 27.5t-31.5 42t-12 61q0 39 16 67.5t41.5 46.5t57.5 26.5t65 8.5q47 0 87 -17t64 -45zM386 594h-66l-83 108l-83 -108h-66l109 144h80z" />
    <glyph glyph-name="scaron.sc" horiz-adv-x="450" 
d="M339 433q-17 23 -44 36.5t-61 13.5q-18 0 -37 -5t-34 -15.5t-24.5 -26.5t-9.5 -39t8.5 -37.5t23.5 -25t34.5 -17.5t42.5 -14q27 -9 55 -19t50.5 -27t37 -42.5t14.5 -65.5q0 -41 -15.5 -71.5t-41 -50.5t-58 -29.5t-67.5 -9.5q-50 0 -97 20t-76 58l56 47q17 -29 48.5 -46.5 t69.5 -17.5q19 0 38.5 5.5t35.5 17t26 29t10 41.5q0 25 -10.5 41.5t-28 27.5t-40.5 18.5t-48 15.5q-26 8 -51 18.5t-44.5 27.5t-31.5 42t-12 61q0 39 16 67.5t41.5 46.5t57.5 26.5t65 8.5q47 0 87 -17t64 -45zM276 594h-80l-109 144h66l83 -108l83 108h66z" />
    <glyph glyph-name="scedilla.sc" horiz-adv-x="450" 
d="M339 433q-17 23 -44 36.5t-61 13.5q-18 0 -37 -5t-34 -15.5t-24.5 -26.5t-9.5 -39t8.5 -37.5t23.5 -25t34.5 -17.5t42.5 -14q27 -9 55 -19t50.5 -27t37 -42.5t14.5 -65.5q0 -38 -13 -66t-34.5 -48t-50 -31t-59.5 -14l-40 -65q13 4 35 4q30 0 56 -18t26 -54q0 -25 -11 -42 t-28 -27t-38 -14t-41 -4t-46.5 5t-47.5 15l16 36q17 -8 35 -11t37 -3q8 0 19 2t21 7.5t17 14t7 20.5q0 20 -14.5 29.5t-39.5 9.5q-22 0 -43 -8l-18 15l55 87q-45 4 -87 23t-68 54l56 47q17 -29 48.5 -46.5t69.5 -17.5q19 0 38.5 5.5t35.5 17t26 29t10 41.5q0 25 -10.5 41.5 t-28 27.5t-40.5 18.5t-48 15.5q-26 8 -51 18.5t-44.5 27.5t-31.5 42t-12 61q0 39 16 67.5t41.5 46.5t57.5 26.5t65 8.5q47 0 87 -17t64 -45z" />
    <glyph glyph-name="scommaaccent.sc" horiz-adv-x="450" 
d="M339 433q-17 23 -44 36.5t-61 13.5q-18 0 -37 -5t-34 -15.5t-24.5 -26.5t-9.5 -39t8.5 -37.5t23.5 -25t34.5 -17.5t42.5 -14q27 -9 55 -19t50.5 -27t37 -42.5t14.5 -65.5q0 -41 -15.5 -71.5t-41 -50.5t-58 -29.5t-67.5 -9.5q-50 0 -97 20t-76 58l56 47q17 -29 48.5 -46.5 t69.5 -17.5q19 0 38.5 5.5t35.5 17t26 29t10 41.5q0 25 -10.5 41.5t-28 27.5t-40.5 18.5t-48 15.5q-26 8 -51 18.5t-44.5 27.5t-31.5 42t-12 61q0 39 16 67.5t41.5 46.5t57.5 26.5t65 8.5q47 0 87 -17t64 -45zM189 -230h-57l62 185h71z" />
    <glyph glyph-name="germandbls.sc" horiz-adv-x="901" 
d="M790 433q-17 23 -44 36.5t-61 13.5q-18 0 -37 -5t-34 -15.5t-24.5 -26.5t-9.5 -39t8.5 -37.5t23.5 -25t34.5 -17.5t42.5 -14q27 -9 55 -19t50.5 -27t37 -42.5t14.5 -65.5q0 -41 -15.5 -71.5t-41 -50.5t-58 -29.5t-67.5 -9.5q-50 0 -97 20t-76 58l56 47q17 -29 48.5 -46.5 t69.5 -17.5q19 0 38.5 5.5t35.5 17t26 29t10 41.5q0 25 -10.5 41.5t-28 27.5t-40.5 18.5t-48 15.5q-26 8 -51 18.5t-44.5 27.5t-31.5 42t-12 61q0 39 16 67.5t41.5 46.5t57.5 26.5t65 8.5q47 0 87 -17t64 -45zM342 433q-17 23 -44 36.5t-61 13.5q-18 0 -37 -5t-34 -15.5 t-24.5 -26.5t-9.5 -39t8.5 -37.5t23.5 -25t34.5 -17.5t42.5 -14q27 -9 55 -19t50.5 -27t37 -42.5t14.5 -65.5q0 -41 -15.5 -71.5t-41 -50.5t-58 -29.5t-67.5 -9.5q-50 0 -97 20t-76 58l56 47q17 -29 48.5 -46.5t69.5 -17.5q19 0 38.5 5.5t35.5 17t26 29t10 41.5 q0 25 -10.5 41.5t-28 27.5t-40.5 18.5t-48 15.5q-26 8 -51 18.5t-44.5 27.5t-31.5 42t-12 61q0 39 16 67.5t41.5 46.5t57.5 26.5t65 8.5q47 0 87 -17t64 -45z" />
    <glyph glyph-name="tcaron.sc" horiz-adv-x="438" 
d="M253 0h-70v469h-171v62h414v-62h-173v-469zM259 594h-80l-109 144h66l83 -108l83 108h66z" />
    <glyph glyph-name="tcommaaccent.sc" horiz-adv-x="438" 
d="M253 0h-70v469h-171v62h414v-62h-173v-469zM194 -230h-57l62 185h71z" />
    <glyph glyph-name="tbar.sc" horiz-adv-x="438" 
d="M66 360h117v109h-171v62h414v-62h-173v-109h119v-45h-119v-315h-70v315h-117v45z" />
    <glyph glyph-name="thorn.sc" horiz-adv-x="491" 
d="M161 193h87q66 0 96.5 22t30.5 67q0 42 -28 62t-98 20h-88v-171zM91 531h70v-105h96q189 0 189 -144q0 -70 -48 -110t-145 -40h-92v-132h-70v531z" />
    <glyph glyph-name="ugrave.sc" horiz-adv-x="572" 
d="M286 -12q-54 0 -92.5 18t-63.5 47.5t-36.5 67.5t-11.5 78v332h70v-327q0 -29 6.5 -56t22.5 -48.5t41.5 -34.5t63.5 -13q37 0 63 13t41.5 34.5t22.5 48.5t7 56v327h70v-332q0 -40 -12 -78t-36.5 -67.5t-63 -47.5t-92.5 -18zM139 738h91l100 -144h-59z" />
    <glyph glyph-name="uacute.sc" horiz-adv-x="572" 
d="M286 -12q-54 0 -92.5 18t-63.5 47.5t-36.5 67.5t-11.5 78v332h70v-327q0 -29 6.5 -56t22.5 -48.5t41.5 -34.5t63.5 -13q37 0 63 13t41.5 34.5t22.5 48.5t7 56v327h70v-332q0 -40 -12 -78t-36.5 -67.5t-63 -47.5t-92.5 -18zM303 594h-59l100 144h91z" />
    <glyph glyph-name="ucircumflex.sc" horiz-adv-x="572" 
d="M286 -12q-54 0 -92.5 18t-63.5 47.5t-36.5 67.5t-11.5 78v332h70v-327q0 -29 6.5 -56t22.5 -48.5t41.5 -34.5t63.5 -13q37 0 63 13t41.5 34.5t22.5 48.5t7 56v327h70v-332q0 -40 -12 -78t-36.5 -67.5t-63 -47.5t-92.5 -18zM437 594h-66l-83 108l-83 -108h-66l109 144h80z " />
    <glyph glyph-name="utilde.sc" horiz-adv-x="572" 
d="M286 -12q-54 0 -92.5 18t-63.5 47.5t-36.5 67.5t-11.5 78v332h70v-327q0 -29 6.5 -56t22.5 -48.5t41.5 -34.5t63.5 -13q37 0 63 13t41.5 34.5t22.5 48.5t7 56v327h70v-332q0 -40 -12 -78t-36.5 -67.5t-63 -47.5t-92.5 -18zM126 611q3 19 9.5 38t17.5 33.5t26.5 23.5 t38.5 9q18 0 36.5 -7t36.5 -16q18 -8 35 -15.5t32 -7.5q23 0 33.5 15.5t15.5 34.5h43q-3 -20 -9.5 -38.5t-17.5 -33t-27 -23.5t-38 -9q-18 0 -37 7t-36 16t-34 16t-33 7q-23 0 -33.5 -15.5t-15.5 -34.5h-43z" />
    <glyph glyph-name="udieresis.sc" horiz-adv-x="572" 
d="M286 -12q-54 0 -92.5 18t-63.5 47.5t-36.5 67.5t-11.5 78v332h70v-327q0 -29 6.5 -56t22.5 -48.5t41.5 -34.5t63.5 -13q37 0 63 13t41.5 34.5t22.5 48.5t7 56v327h70v-332q0 -40 -12 -78t-36.5 -67.5t-63 -47.5t-92.5 -18zM333 677q0 20 14 35.5t37 15.5t37 -15.5 t14 -35.5t-14 -35.5t-37 -15.5t-37 15.5t-14 35.5zM141 677q0 20 14 35.5t37 15.5t37 -15.5t14 -35.5t-14 -35.5t-37 -15.5t-37 15.5t-14 35.5z" />
    <glyph glyph-name="umacron.sc" horiz-adv-x="572" 
d="M286 -12q-54 0 -92.5 18t-63.5 47.5t-36.5 67.5t-11.5 78v332h70v-327q0 -29 6.5 -56t22.5 -48.5t41.5 -34.5t63.5 -13q37 0 63 13t41.5 34.5t22.5 48.5t7 56v327h70v-332q0 -40 -12 -78t-36.5 -67.5t-63 -47.5t-92.5 -18zM423 630h-270v54h270v-54z" />
    <glyph glyph-name="ubreve.sc" horiz-adv-x="572" 
d="M286 -12q-54 0 -92.5 18t-63.5 47.5t-36.5 67.5t-11.5 78v332h70v-327q0 -29 6.5 -56t22.5 -48.5t41.5 -34.5t63.5 -13q37 0 63 13t41.5 34.5t22.5 48.5t7 56v327h70v-332q0 -40 -12 -78t-36.5 -67.5t-63 -47.5t-92.5 -18zM435 738q-4 -63 -44.5 -97.5t-102.5 -34.5 t-102.5 34.5t-44.5 97.5h44q7 -39 36 -58.5t67 -19.5t67 19.5t36 58.5h44z" />
    <glyph glyph-name="uring.sc" horiz-adv-x="572" 
d="M286 -12q-54 0 -92.5 18t-63.5 47.5t-36.5 67.5t-11.5 78v332h70v-327q0 -29 6.5 -56t22.5 -48.5t41.5 -34.5t63.5 -13q37 0 63 13t41.5 34.5t22.5 48.5t7 56v327h70v-332q0 -40 -12 -78t-36.5 -67.5t-63 -47.5t-92.5 -18zM346 680q0 25 -17.5 42t-42.5 17t-42.5 -17 t-17.5 -42t17.5 -42t42.5 -17t42.5 17t17.5 42zM382 680q0 -20 -7.5 -37.5t-21 -30.5t-31 -20t-36.5 -7q-20 0 -37 7t-30.5 20t-21 30.5t-7.5 37.5t7.5 37.5t21 30t30.5 20t37 7.5q19 0 36.5 -7.5t31 -20t21 -30t7.5 -37.5z" />
    <glyph glyph-name="uhungarumlaut.sc" horiz-adv-x="572" 
d="M286 -12q-54 0 -92.5 18t-63.5 47.5t-36.5 67.5t-11.5 78v332h70v-327q0 -29 6.5 -56t22.5 -48.5t41.5 -34.5t63.5 -13q37 0 63 13t41.5 34.5t22.5 48.5t7 56v327h70v-332q0 -40 -12 -78t-36.5 -67.5t-63 -47.5t-92.5 -18zM393 594h-59l100 144h91zM222 594h-59l101 144 h91z" />
    <glyph glyph-name="uogonek.sc" horiz-adv-x="572" 
d="M382 -187q-17 -17 -41 -26.5t-49 -9.5q-18 0 -34 6t-28.5 17.5t-20 27t-7.5 34.5q0 38 23 70t51 56q-51 2 -88 20.5t-60.5 48t-34.5 66.5t-11 76v332h70v-327q0 -29 6.5 -56t22.5 -48.5t41.5 -34.5t63.5 -13q37 0 63 13t41.5 34.5t22.5 48.5t7 56v327h70v-332 q0 -36 -9.5 -70t-29 -62t-49.5 -48t-72 -27q-32 -34 -50 -59.5t-18 -53.5q0 -21 15 -34.5t35 -13.5q14 0 27.5 5.5t23.5 16.5z" />
    <glyph glyph-name="wcircumflex.sc" horiz-adv-x="766" 
d="M217 102h2l125 429h79l125 -429h2l119 429h75l-156 -531h-75l-129 432h-1l-131 -432h-74l-156 531h75zM533 594h-66l-83 108l-83 -108h-66l109 144h80z" />
    <glyph glyph-name="yacute.sc" horiz-adv-x="468" 
d="M268 0h-70v230l-198 301h84l150 -243l150 243h84l-200 -301v-230zM239 594h-59l100 144h91z" />
    <glyph glyph-name="ycircumflex.sc" horiz-adv-x="468" 
d="M268 0h-70v230l-198 301h84l150 -243l150 243h84l-200 -301v-230zM383 594h-66l-83 108l-83 -108h-66l109 144h80z" />
    <glyph glyph-name="ydieresis.sc" horiz-adv-x="468" 
d="M268 0h-70v230l-198 301h84l150 -243l150 243h84l-200 -301v-230zM280 677q0 20 14 35.5t37 15.5t37 -15.5t14 -35.5t-14 -35.5t-37 -15.5t-37 15.5t-14 35.5zM88 677q0 20 14 35.5t37 15.5t37 -15.5t14 -35.5t-14 -35.5t-37 -15.5t-37 15.5t-14 35.5z" />
    <glyph glyph-name="zacute.sc" horiz-adv-x="498" 
d="M440 471l-301 -408h306v-63h-392v61l300 408h-294v62h381v-60zM237 594h-59l100 144h91z" />
    <glyph glyph-name="zcaron.sc" horiz-adv-x="498" 
d="M440 471l-301 -408h306v-63h-392v61l300 408h-294v62h381v-60zM294 594h-80l-109 144h66l83 -108l83 108h66z" />
    <glyph glyph-name="zdotaccent.sc" horiz-adv-x="498" 
d="M440 471l-301 -408h306v-63h-392v61l300 408h-294v62h381v-60zM296 678q0 -21 -15 -34.5t-33 -13.5t-33 13.5t-15 34.5t15 34.5t33 13.5t33 -13.5t15 -34.5z" />
    <glyph glyph-name="fi.sc" horiz-adv-x="726" 
d="M160 0h-70v531h329v-62h-259v-168h243v-61h-243v-240zM636 0h-70v531h70v-531z" />
    <glyph glyph-name="fl.sc" horiz-adv-x="898" 
d="M160 0h-70v531h329v-62h-259v-168h243v-61h-243v-240zM637 63h239v-63h-309v531h70v-468z" />
    <glyph glyph-name="ij.sc" horiz-adv-x="642" 
d="M160 0h-70v531h70v-531zM329 119q7 -29 27 -48t52 -19q25 0 41 9t25 24.5t12.5 36.5t3.5 44v365h70v-368q0 -27 -6 -58t-22 -57t-45 -43t-75 -17q-60 0 -98.5 31.5t-50.5 80.5z" />
    <glyph glyph-name="grave.sc" 
d="M-10 738h91l100 -144h-59z" />
    <glyph glyph-name="acute.sc" 
d="M118 594h-59l100 144h91z" />
    <glyph glyph-name="circumflex.sc" 
d="M269 594h-66l-83 108l-83 -108h-66l109 144h80z" />
    <glyph glyph-name="caron.sc" 
d="M160 594h-80l-109 144h66l83 -108l83 108h66z" />
    <glyph glyph-name="tilde.sc" 
d="M-42 611q3 19 9.5 38t17.5 33.5t26.5 23.5t38.5 9q18 0 36.5 -7t36.5 -16q18 -8 35 -15.5t32 -7.5q23 0 33.5 15.5t15.5 34.5h43q-3 -20 -9.5 -38.5t-17.5 -33t-27 -23.5t-38 -9q-18 0 -37 7t-36 16t-34 16t-33 7q-23 0 -33.5 -15.5t-15.5 -34.5h-43z" />
    <glyph glyph-name="dieresis.sc" 
d="M165 677q0 20 14 35.5t37 15.5t37 -15.5t14 -35.5t-14 -35.5t-37 -15.5t-37 15.5t-14 35.5zM-27 677q0 20 14 35.5t37 15.5t37 -15.5t14 -35.5t-14 -35.5t-37 -15.5t-37 15.5t-14 35.5z" />
    <glyph glyph-name="macron.sc" 
d="M255 630h-270v54h270v-54z" />
    <glyph glyph-name="breve.sc" 
d="M267 738q-4 -63 -44.5 -97.5t-102.5 -34.5t-102.5 34.5t-44.5 97.5h44q7 -39 36 -58.5t67 -19.5t67 19.5t36 58.5h44z" />
    <glyph glyph-name="ring.sc" 
d="M180 680q0 25 -17.5 42t-42.5 17t-42.5 -17t-17.5 -42t17.5 -42t42.5 -17t42.5 17t17.5 42zM216 680q0 -20 -7.5 -37.5t-21 -30.5t-31 -20t-36.5 -7q-20 0 -37 7t-30.5 20t-21 30.5t-7.5 37.5t7.5 37.5t21 30t30.5 20t37 7.5q19 0 36.5 -7.5t31 -20t21 -30t7.5 -37.5z " />
    <glyph glyph-name="hungarumlaut.sc" 
d="M169 594h-59l100 144h91zM-2 594h-59l101 144h91z" />
    <glyph glyph-name="dotaccent.sc" 
d="M168 678q0 -21 -15 -34.5t-33 -13.5t-33 13.5t-15 34.5t15 34.5t33 13.5t33 -13.5t15 -34.5z" />
    <glyph glyph-name="exclamdown.sc" horiz-adv-x="286" 
d="M196 484q0 -21 -14.5 -37t-38.5 -16t-38.5 16t-14.5 37t14.5 37t38.5 16t38.5 -16t14.5 -37zM108 0v373h70v-373h-70z" />
    <glyph glyph-name="questiondown.sc" horiz-adv-x="380" 
d="M139 484q0 21 14.5 37t38.5 16t38.5 -16t14.5 -37t-14.5 -37t-38.5 -16t-38.5 16t-14.5 37zM163 373h68v-35q0 -30 -12 -55.5t-47 -56.5l-28 -25q-21 -19 -29 -35t-8 -41q0 -28 22 -52.5t62 -24.5q30 0 54 17t34 61l66 -12q-12 -60 -51.5 -93t-105.5 -33q-37 0 -65 11 t-47 29.5t-29 42.5t-10 50q0 42 16 71.5t54 58.5q18 14 29 26t17 23.5t8 24t2 27.5v21z" />
    <glyph glyph-name="Euro.sc" horiz-adv-x="484" 
d="M405 455q-26 14 -49 19.5t-48 5.5q-54 0 -93.5 -33.5t-54.5 -99.5h214l-17 -52h-204q-3 -26 -3 -41q0 -7 .5 -14.5t1.5 -15.5h186l-17 -52h-160q4 -24 16 -46t29.5 -39.5t40.5 -27.5t49 -10q27 0 54 7.5t54 27.5l27 -53q-32 -23 -64 -33t-72 -10q-46 0 -82 16 t-61.5 42.5t-41.5 59.5t-21 66h-62l19 52h36q0 1 -.5 10.5t-0.5 14.5q0 11 .5 24.5t1.5 21.5h-55l19 52h43q9 45 29.5 81.5t49 62t64.5 39t76 13.5q32 0 61.5 -7t58.5 -24l-24 -57v0z" />
    <glyph glyph-name="cent.sc" horiz-adv-x="484" 
d="M308 49q36 2 64 19.5t43 41.5l54 -41q-32 -38 -74 -58t-87 -22v-61h-48v63q-49 5 -88 25.5t-66 53t-41.5 74.5t-14.5 90t14.5 90t41.5 74.5t66 53t88 25.5v63h48v-61q45 -2 87 -22t74 -58l-54 -41q-15 24 -43 41.5t-64 19.5v-370zM260 417q-32 -6 -57.5 -22t-43.5 -40 t-27.5 -55t-9.5 -66t9.5 -66t27.5 -55t43.5 -40t57.5 -22v366z" />
    <glyph glyph-name="sterling.sc" horiz-adv-x="484" 
d="M334 244h-118v-181h187v-63h-326v63h69v181h-63v58h63v62q0 84 44.5 131.5t122.5 47.5q68 0 116 -43l-45 -48q-20 20 -38 26t-36 6q-44 0 -69 -31t-25 -95v-56h118v-58z" />
    <glyph glyph-name="florin.sc" horiz-adv-x="484" 
d="M367 284h-91l-37 -236q-21 -134 -127 -134q-20 0 -41 6.5t-33 16.5l25 52q9 -8 23 -12.5t25 -4.5q17 0 34 14.5t25 60.5l37 237h-80v52h85l18 105q9 52 39.5 77t71.5 25q22 0 44.5 -8t39.5 -22l-36 -46q-11 9 -22.5 13.5t-21.5 4.5q-18 0 -30.5 -12.5t-17.5 -41.5 l-16 -95h86v-52z" />
    <glyph glyph-name="yen.sc" horiz-adv-x="484" 
d="M211 167v66h-117v52h105l-170 246h78l138 -210l135 210h75l-168 -246h107v-52h-117v-66h117v-52h-117v-115h-66v115h-117v52h117z" />
    <glyph glyph-name="perthousand.sc" horiz-adv-x="972" 
d="M183 -31l-47 27l342 564l46 -27zM878 122q0 33 -23.5 55.5t-55.5 22.5t-55.5 -22.5t-23.5 -55.5q0 -34 23.5 -56t55.5 -22t55.5 22t23.5 56zM934 122q0 -28 -10.5 -52.5t-28.5 -42.5t-43 -28.5t-53 -10.5q-29 0 -53.5 10.5t-42.5 28.5t-28.5 42.5t-10.5 52.5t10.5 52.5 t28.5 42.5t42.5 28.5t53.5 10.5q28 0 53 -10.5t43 -28.5t28.5 -42.5t10.5 -52.5zM565 122q0 33 -23.5 55.5t-55.5 22.5t-55.5 -22.5t-23.5 -55.5q0 -34 23.5 -56t55.5 -22t55.5 22t23.5 56zM621 122q0 -28 -10.5 -52.5t-28.5 -42.5t-43 -28.5t-53 -10.5q-29 0 -53.5 10.5 t-42.5 28.5t-28.5 42.5t-10.5 52.5t10.5 52.5t28.5 42.5t42.5 28.5t53.5 10.5q28 0 53 -10.5t43 -28.5t28.5 -42.5t10.5 -52.5zM254 409q0 33 -23.5 55.5t-55.5 22.5t-55.5 -22.5t-23.5 -55.5q0 -34 23.5 -56t55.5 -22t55.5 22t23.5 56zM310 409q0 -28 -10.5 -52.5 t-28.5 -42.5t-43 -28.5t-53 -10.5q-29 0 -53.5 10.5t-42.5 28.5t-28.5 42.5t-10.5 52.5t10.5 52.5t28.5 42.5t42.5 28.5t53.5 10.5q28 0 53 -10.5t43 -28.5t28.5 -42.5t10.5 -52.5z" />
    <glyph glyph-name="zero.onum" horiz-adv-x="689" 
d="M550 267q0 45 -14.5 84.5t-41.5 68t-65 45t-86 16.5q-47 0 -85 -16.5t-64.5 -45t-40.5 -68t-14 -84.5q0 -46 14.5 -85.5t41 -68.5t64 -45.5t84.5 -16.5q48 0 86 16.5t65 45.5t41.5 68.5t14.5 85.5zM627 267q0 -62 -21.5 -113t-59 -88.5t-90 -58t-113.5 -20.5 q-60 0 -111.5 20.5t-89 58t-59 88.5t-21.5 113t21.5 113.5t59 88t89 56.5t111.5 20q61 0 113.5 -20t90 -56.5t59 -88t21.5 -113.5z" />
    <glyph glyph-name="one.onum" horiz-adv-x="385" 
d="M182 0v441l-98 -83l-42 49l149 124h62v-531h-71z" />
    <glyph glyph-name="two.onum" horiz-adv-x="512" 
d="M52 0v65l83 58q58 41 102.5 73t74 60.5t44.5 56.5t15 61q0 50 -33 79.5t-92 29.5q-46 0 -83 -23t-59 -68l-54 36q29 56 81 86.5t116 30.5q91 0 143.5 -44t52.5 -125q0 -41 -17 -75t-47 -65.5t-71 -61.5t-89 -63l-66 -45v-3h299v-63h-400z" />
    <glyph glyph-name="three.onum" horiz-adv-x="527" 
d="M464 71q0 -59 -21.5 -104t-59 -75.5t-89 -46t-110.5 -15.5q-26 0 -54 2t-51 7l11 64q20 -5 45 -7.5t47 -2.5q46 0 84.5 10.5t66 32t43 54t15.5 76.5q0 71 -48.5 110.5t-129.5 39.5q-25 0 -51 -4t-51 -12l-15 54q30 22 66.5 51.5l73 59t68.5 56.5t52 45v4h-284v61h369v-69 q-20 -19 -49.5 -44t-61.5 -51t-64.5 -51.5t-59.5 -46.5v-4q10 2 20 3.5t22 1.5q45 0 84 -14t68.5 -40.5t46.5 -63t17 -81.5z" />
    <glyph glyph-name="four.onum" horiz-adv-x="569" 
d="M427 8v-178h-69v178h-314v65l279 472h76l-283 -475h242v255h69v-255h116v-62h-116z" />
    <glyph glyph-name="five.onum" horiz-adv-x="519" 
d="M449 466h-274l-25 -198q16 5 35 7.5t38 2.5q46 0 86.5 -13.5t71 -40t48 -65t17.5 -88.5q0 -60 -20.5 -105.5t-56 -75.5t-84.5 -45t-106 -15q-27 0 -57.5 2.5t-53.5 7.5l10 63q42 -11 95 -11q96 0 148.5 44t52.5 132q0 39 -14 68t-38 47.5t-55.5 27.5t-67.5 9 q-31 0 -63.5 -6.5t-57.5 -14.5l38 332h333v-65z" />
    <glyph glyph-name="six.onum" horiz-adv-x="585" 
d="M294 374q-35 0 -65 -12t-51.5 -34t-33.5 -52.5t-12 -66.5q0 -35 11.5 -64.5t32.5 -52t50.5 -35t65.5 -12.5q35 0 64.5 12.5t50.5 34t33 52t12 66.5q0 35 -11 65t-32 52t-50 34.5t-65 12.5zM525 212q0 -51 -17.5 -93t-49 -72t-74 -47t-92.5 -17q-51 0 -94 16.5t-74 47.5 t-48.5 74.5t-17.5 97.5q0 64 28.5 132.5t73.5 134t100.5 124.5t109.5 103l57 -40q-37 -29 -74 -64t-70.5 -72.5t-61 -76t-46.5 -75.5l3 -2q23 24 57 36.5t75 12.5q46 0 85.5 -16.5t68 -46t45 -69.5t16.5 -88z" />
    <glyph glyph-name="seven.onum" horiz-adv-x="516" 
d="M470 465q-40 -81 -81 -168.5t-80 -173t-73.5 -164.5t-59.5 -142l-73 19q18 43 42 95.5t50 109.5t53.5 116t54 115t50.5 105.5t44 88.5h-348v65h421v-66v0z" />
    <glyph glyph-name="eight.onum" horiz-adv-x="576" 
d="M442 195q0 33 -11.5 60.5t-32.5 47.5t-49 31t-61 11t-61 -11t-49 -31t-32.5 -47.5t-11.5 -60.5t11 -60.5t31.5 -47.5t48.5 -31t63 -11q34 0 62.5 11t48.5 31t31.5 47.5t11.5 60.5zM288 664q-56 0 -93 -35.5t-37 -92.5q0 -27 9.5 -50.5t27 -41.5t41 -28t52.5 -10 q28 0 52 10t41.5 28t27.5 41.5t10 50.5q0 28 -10.5 51.5t-28 40.5t-41.5 26.5t-51 9.5zM516 191q0 -48 -18 -86.5t-49 -65.5t-72.5 -41t-88.5 -14t-88.5 14t-72.5 41t-49 65.5t-18 86.5q0 68 38 117.5t100 66.5v2q-52 19 -82.5 62t-30.5 99q0 42 16 76.5t43.5 58.5 t64.5 37.5t79 13.5t79 -13t64 -37t43 -58.5t16 -76.5q0 -55 -30 -99.5t-83 -62.5v-2q65 -17 102 -67.5t37 -116.5z" />
    <glyph glyph-name="nine.onum" horiz-adv-x="585" 
d="M293 483q-35 0 -64.5 -12.5t-50.5 -34t-32.5 -52t-11.5 -66.5q0 -35 11 -65t31.5 -52t49.5 -34.5t65 -12.5q35 0 65 12.5t51.5 34t34 52t12.5 66.5q0 34 -12 64t-33 52.5t-50.5 35t-65.5 12.5zM527 310q0 -64 -28.5 -133t-73.5 -134.5t-100.5 -124t-109.5 -102.5l-57 40 q37 28 74 62t70.5 71t61 75t46.5 75l-3 2q-51 -45 -132 -45q-46 0 -85.5 16.5t-68 46t-45 69.5t-16.5 88q0 51 17.5 93t49 72t74.5 47t93 17q51 0 93.5 -16.5t73.5 -47.5t48.5 -74t17.5 -97z" />
    <glyph glyph-name="ordfeminine.sc" horiz-adv-x="360" 
d="M127 535h105l-52 130zM86 431h-59l125 289h57l124 -289h-59l-27 66h-134z" />
    </font>
</defs>
</svg>
